  0
SECTION
  2
HEADER
  9
$ACADVER
  1
AC1003
  9
$INSBASE
 10
0.000000
 20
0.000000
  9
$EXTMIN
 10
0.000000
 20
0.000000
  9
$EXTMAX
 10
514.000000
 20
364.000000
  9
$LIMMIN
 10
0.000000
 20
0.000000
  9
$LIMMAX
 10
514.000000
 20
364.000000
  9
$VIEWCTR
 10
257.000000
 20
182.000000
  9
$VIEWSIZE
 40
364.000000
  9
$PEXTMIN
 10
0.000000
 20
0.000000
 30
0.000000
  9
$PEXTMAX
 10
257.000000
 20
182.000000
 30
0.000000
  9
$SNAPMODE
 70
     0
  9
$SNAPUNIT
 10
1.000000
 20
1.000000
  9
$SNAPBASE
 10
0.000000
 20
0.000000
  9
$SNAPANG
 50
0.000000
  9
$SNAPISOPAIR
 70
     0
  9
$SNAPSTYLE
 70
     0
  9
$GRIDMODE
 70
     0
  9
$GRIDUNIT
 10
0.000000
 20
0.000000
  9
$ORTHOMODE
 70
     0
  9
$REGENMODE
 70
     1
  9
$FILLMODE
 70
     1
  9
$QTEXTMODE
 70
     0
  9
$DRAGMODE
 70
     2
  9
$LTSCALE
 40
0.500000
  9
$OSMODE
 70
     0
  9
$ATTMODE
 70
     1
  9
$TEXTSIZE
 40
10.000000
  9
$TRACEWID
 40
0.050000
  9
$TEXTSTYLE
  7
STANDARD
  9
$CLAYER
  8
0
  9
$CELTYPE
  6
BYLAYER
  9
$CECOLOR
 62
   256
  9
$DIMSCALE
 40
1.000000
  9
$DIMASZ
 40
1.000000
  9
$DIMEXO
 40
0.000000
  9
$DIMDLI
 40
0.500000
  9
$DIMRND
 40
0.000000
  9
$DIMDLE
 40
0.000000
  9
$DIMEXE
 40
0.000000
  9
$DIMTP
 40
0.000000
  9
$DIMTM
 40
0.000000
  9
$DIMTXT
 40
4.000000
  9
$DIMCEN
 40
0.000000
  9
$DIMTSZ
 40
0.000000
  9
$DIMTOL
 70
     0
  9
$DIMLIM
 70
     0
  9
$DIMTIH
 70
     1
  9
$DIMTOH
 70
     1
  9
$DIMSE1
 70
     0
  9
$DIMSE2
 70
     0
  9
$DIMTAD
 70
     0
  9
$DIMZIN
 70
     0
  9
$DIMBLK
  1

  9
$DIMASO
 70
     0
  9
$DIMSHO
 70
     0
  9
$DIMPOST
  1

  9
$DIMAPOST
  1

  9
$DIMALT
 70
     0
  9
$DIMALTD
 70
     0
  9
$DIMALTF
 40
25.400000
  9
$DIMLFAC
 40
1.000000
  9
$DIMTOFL
 70
     0
  9
$DIMTVP
 40
0.000000
  9
$DIMTIX
 70
     0
  9
$DIMSOXD
 70
     0
  9
$DIMSAH
 70
     0
  9
$DIMBLKL
  1

  9
$DIMBLKR
  1

  9
$LUNITS
 70
     2
  9
$LUPREC
 70
     2
  9
$AXISMODE
 70
     0
  9
$AXISUNIT
 10
1.000000
 20
1.000000
  9
$SKETCHINC
 40
0.000000
  9
$FILLETRAD
 40
0.000000
  9
$AUNITS
 70
     1
  9
$AUPREC
 70
     2
  9
$MENU
  1
ACAD
  9
$ELEVATION
 40
0.000000
  9
$THICKNESS
 40
0.000000
  9
$VIEWDIR
 10
0.000000
 20
0.000000
 30
1.000000
  9
$LIMCHECK
 70
     1
  9
$BLIPMODE
 70
     1
  9
$CHAMFERA
 40
0.000000
  9
$CHAMFERB
 40
0.000000
  9
$FASTZOOM
 70
     1
  9
$SKPOLY
 70
     0
  9
$TDCREATE
 40
0.000000
  9
$TDUPDATE
 40
0.000000
  9
$TDINDWG
 40
0.000000
  9
$TDUSRTIMER
 40
0.000000
  9
$USRTIMER
 70
     1
  9
$ANGBASE
 50
0.000000
  9
$ANGDIR
 70
     0
  9
$PDMODE
 70
     0
  9
$PDSIZE
 40
0.000000
  9
$PLINEWID
 40
0.000000
  9
$COORDS
 70
     2
  9
$USERI1
 70
     0
  9
$USERI2
 70
     0
  9
$USERI3
 70
     0
  9
$USERI4
 70
     0
  9
$USERI5
 70
     0
  9
$USERR1
 40
0.000000
  9
$USERR2
 40
0.000000
  9
$USERR3
 40
0.000000
  9
$USERR4
 40
0.000000
  9
$USERR5
 40
0.000000
  0
ENDSEC
  0
SECTION
  2
TABLES
  0
TABLE
  2
LTYPE
 70
     5
  0
LTYPE
  2
CONTINUOUS
 70
    64
  3
Solid line
 72
    65
 73
     0
 40
0.0
  0
LTYPE
  2
HIDDEN
 70
    64
  3
------------------------
 72
    65
 73
     2
 40
12.6
 49
8.4
 49
-4.2
  0
LTYPE
  2
DOT
 70
    64
  3
････････････････････････
 72
    65
 73
     2
 40
8.0
 49
6.0
 49
-2.0
  0
LTYPE
  2
DASHDOT
 70
    64
  3
--･--･--･--･--･--･--･--
 72
    65
 73
     4
 40
50.5
 49
30.0
 49
-9.0
 49
2.5
 49
-9.0
  0
LTYPE
  2
DIVIDE
 70
    64
  3
--･･--･･--･･--･･--･･--
 72
    65
 73
     6
 40
58.0
 49
30.0
 49
-9.0
 49
2.5
 49
-5.0
 49
2.5
 49
-9.0
  0
LTYPE
  2
ACAD_ISO06W100
 70
    64
  3
____ ... ____ ... ____
 72
    65
 73
     8
 40
37.5
 49
24.0
 49
-3.0
 49
0.5
 49
-3.0
 49
0.5
 49
-3.0
 49
0.5
 49
-3.0
  0
LTYPE
  2
ACAD_ISO14W100
 70
    64
  3
__ . . . __ . . . __ . . . 
 72
    65
 73
     8
 40
25.5
 49
12.0
 49
-3.0
 49
0.5
 49
-3.0
 49
0.5
 49
-3.0
 49
0.5
 49
-3.0
  0
ENDTAB
  0
TABLE
  2
LAYER
 70
4
  0
LAYER
  2
1
 70
64
 62
7
  6
CONTINUOUS
  0
LAYER
  2
2
 70
64
 62
7
  6
CONTINUOUS
  0
LAYER
  2
3
 70
64
 62
7
  6
CONTINUOUS
  0
LAYER
  2
5
 70
64
 62
7
  6
CONTINUOUS
  0
ENDTAB
  0
TABLE
  2
STYLE
 70
     2
  0
STYLE
  2
STANDARD
 70
    64
 40
0.0
 41
1.0
 50
0.0
 71
     0
 42
0.2
  3
TXT
  4

  0
STYLE
  2
KANJI
 70
    64
 40
0.0
 41
1.0
 50
0.0
 71
     0
 42
0.2
  3
TXT
  4
BIGFONT
  0
ENDTAB
  0
TABLE
  2
VIEW
 70
     0
  0
ENDTAB
  0
ENDSEC
  0
SECTION
  2
BLOCKS
  0
BLOCK
  8
3
 62
7
  6
CONTINUOUS
  2
*D1
 70
    65
 10
0.0
 20
0.0
  0
LINE
  8
3
 62
7
  6
CONTINUOUS
 10
170.375156
 20
46.747653
 11
156.375156
 21
46.747653
  0
LINE
  8
3
 62
7
  6
CONTINUOUS
 10
170.375156
 20
44.747653
 11
170.375156
 21
79.393140
  0
LINE
  8
3
 62
7
  6
CONTINUOUS
 10
156.375156
 20
44.747653
 11
156.375156
 21
61.193140
  0
LINE
  8
3
 62
7
  6
CONTINUOUS
 10
170.375156
 20
46.747653
 11
167.477379
 21
45.971196
  0
LINE
  8
3
 62
7
  6
CONTINUOUS
 10
170.375156
 20
46.747653
 11
167.477379
 21
47.524110
  0
LINE
  8
3
 62
7
  6
CONTINUOUS
 10
156.375156
 20
46.747653
 11
159.272934
 21
47.524110
  0
LINE
  8
3
 62
7
  6
CONTINUOUS
 10
156.375156
 20
46.747653
 11
159.272934
 21
45.971196
  0
TEXT
  8
3
 62
7
  6
CONTINUOUS
 10
161.375156
 20
46.747653
 40
4.000000
 41
0.500000
  1
14
  7
KANJI
 50
0.000000
 51
0.000000
  0
ENDBLK
  0
BLOCK
  8
3
 62
7
  6
CONTINUOUS
  2
*D2
 70
    65
 10
0.0
 20
0.0
  0
LINE
  8
3
 62
7
  6
CONTINUOUS
 10
175.375156
 20
53.424771
 11
159.375156
 21
53.424771
  0
LINE
  8
3
 62
7
  6
CONTINUOUS
 10
170.375156
 20
51.424771
 11
170.375156
 21
79.393140
  0
LINE
  8
3
 62
7
  6
CONTINUOUS
 10
164.375156
 20
51.424771
 11
164.375156
 21
79.393140
  0
LINE
  8
3
 62
7
  6
CONTINUOUS
 10
170.375156
 20
53.424771
 11
173.272934
 21
54.201228
  0
LINE
  8
3
 62
7
  6
CONTINUOUS
 10
170.375156
 20
53.424771
 11
173.272934
 21
52.648314
  0
LINE
  8
3
 62
7
  6
CONTINUOUS
 10
164.375156
 20
53.424771
 11
161.477379
 21
52.648314
  0
LINE
  8
3
 62
7
  6
CONTINUOUS
 10
164.375156
 20
53.424771
 11
161.477379
 21
54.201228
  0
TEXT
  8
3
 62
7
  6
CONTINUOUS
 10
166.375156
 20
53.424771
 40
4.000000
 41
0.500000
  1
6
  7
KANJI
 50
0.000000
 51
0.000000
  0
ENDBLK
  0
BLOCK
  8
3
 62
7
  6
CONTINUOUS
  2
*D3
 70
    65
 10
0.0
 20
0.0
  0
LINE
  8
3
 62
7
  6
CONTINUOUS
 10
128.439736
 20
105.393140
 11
128.439736
 21
81.393140
  0
LINE
  8
3
 62
7
  6
CONTINUOUS
 10
130.439736
 20
105.393140
 11
101.875156
 21
105.393140
  0
LINE
  8
3
 62
7
  6
CONTINUOUS
 10
130.439736
 20
81.393140
 11
101.875156
 21
81.393140
  0
LINE
  8
3
 62
7
  6
CONTINUOUS
 10
128.439736
 20
105.393140
 11
129.216193
 21
102.495363
  0
LINE
  8
3
 62
7
  6
CONTINUOUS
 10
128.439736
 20
105.393140
 11
127.663279
 21
102.495363
  0
LINE
  8
3
 62
7
  6
CONTINUOUS
 10
128.439736
 20
81.393140
 11
127.663279
 21
84.290917
  0
LINE
  8
3
 62
7
  6
CONTINUOUS
 10
128.439736
 20
81.393140
 11
129.216193
 21
84.290917
  0
TEXT
  8
3
 62
7
  6
CONTINUOUS
 10
128.439736
 20
91.393140
 40
4.000000
 41
0.500000
  1
24
  7
KANJI
 50
90.000000
 51
0.000000
  0
ENDBLK
  0
BLOCK
  8
3
 62
7
  6
CONTINUOUS
  2
*D4
 70
    65
 10
0.0
 20
0.0
  0
LINE
  8
3
 62
7
  6
CONTINUOUS
 10
71.525155
 20
52.046813
 11
91.225156
 21
52.046813
  0
LINE
  8
3
 62
7
  6
CONTINUOUS
 10
71.525155
 20
50.046813
 11
71.525155
 21
83.493140
  0
LINE
  8
3
 62
7
  6
CONTINUOUS
 10
91.225156
 20
50.046813
 11
91.225156
 21
83.493140
  0
LINE
  8
3
 62
7
  6
CONTINUOUS
 10
71.525155
 20
52.046813
 11
74.422933
 21
52.823270
  0
LINE
  8
3
 62
7
  6
CONTINUOUS
 10
71.525155
 20
52.046813
 11
74.422933
 21
51.270356
  0
LINE
  8
3
 62
7
  6
CONTINUOUS
 10
91.225156
 20
52.046813
 11
88.327379
 21
51.270356
  0
LINE
  8
3
 62
7
  6
CONTINUOUS
 10
91.225156
 20
52.046813
 11
88.327379
 21
52.823270
  0
TEXT
  8
3
 62
7
  6
CONTINUOUS
 10
75.375156
 20
52.046813
 40
4.000000
 41
1.000000
  1
(φ20)
  7
KANJI
 50
0.000000
 51
0.000000
  0
ENDBLK
  0
BLOCK
  8
3
 62
7
  6
CONTINUOUS
  2
*D5
 70
    65
 10
0.0
 20
0.0
  0
LINE
  8
3
 62
7
  6
CONTINUOUS
 10
47.875156
 20
38.747653
 11
114.875156
 21
38.747653
  0
LINE
  8
3
 62
7
  6
CONTINUOUS
 10
47.875156
 20
36.747653
 11
47.875156
 21
85.834658
  0
LINE
  8
3
 62
7
  6
CONTINUOUS
 10
114.875156
 20
36.747653
 11
114.875156
 21
85.834658
  0
LINE
  8
3
 62
7
  6
CONTINUOUS
 10
47.875156
 20
38.747653
 11
50.772933
 21
39.524110
  0
LINE
  8
3
 62
7
  6
CONTINUOUS
 10
47.875156
 20
38.747653
 11
50.772933
 21
37.971196
  0
LINE
  8
3
 62
7
  6
CONTINUOUS
 10
114.875156
 20
38.747653
 11
111.977378
 21
37.971196
  0
LINE
  8
3
 62
7
  6
CONTINUOUS
 10
114.875156
 20
38.747653
 11
111.977378
 21
39.524110
  0
TEXT
  8
3
 62
7
  6
CONTINUOUS
 10
79.375156
 20
38.747653
 40
4.000000
 41
0.500000
  1
67
  7
KANJI
 50
0.000000
 51
0.000000
  0
ENDBLK
  0
BLOCK
  8
3
 62
7
  6
CONTINUOUS
  2
*D6
 70
    65
 10
0.0
 20
0.0
  0
LINE
  8
3
 62
7
  6
CONTINUOUS
 10
52.375156
 20
45.247653
 11
110.375156
 21
45.247653
  0
LINE
  8
3
 62
7
  6
CONTINUOUS
 10
52.375156
 20
43.247653
 11
52.375156
 21
89.143140
  0
LINE
  8
3
 62
7
  6
CONTINUOUS
 10
110.375156
 20
43.247653
 11
110.375156
 21
89.143140
  0
LINE
  8
3
 62
7
  6
CONTINUOUS
 10
52.375156
 20
45.247653
 11
55.272933
 21
46.024110
  0
LINE
  8
3
 62
7
  6
CONTINUOUS
 10
52.375156
 20
45.247653
 11
55.272933
 21
44.471196
  0
LINE
  8
3
 62
7
  6
CONTINUOUS
 10
110.375156
 20
45.247653
 11
107.477378
 21
44.471196
  0
LINE
  8
3
 62
7
  6
CONTINUOUS
 10
110.375156
 20
45.247653
 11
107.477378
 21
46.024110
  0
TEXT
  8
3
 62
7
  6
CONTINUOUS
 10
74.375156
 20
45.247653
 40
4.000000
 41
1.000000
  1
58±0.5
  7
KANJI
 50
0.000000
 51
0.000000
  0
ENDBLK
  0
BLOCK
  8
3
 62
7
  6
CONTINUOUS
  2
*D7
 70
    65
 10
0.0
 20
0.0
  0
LINE
  8
3
 62
7
  6
CONTINUOUS
 10
30.745114
 20
63.193140
 11
30.745114
 21
135.493140
  0
LINE
  8
3
 62
7
  6
CONTINUOUS
 10
28.745114
 20
63.193140
 11
80.375156
 21
63.193140
  0
LINE
  8
3
 62
7
  6
CONTINUOUS
 10
28.745114
 20
135.493140
 11
70.139769
 21
135.493140
  0
LINE
  8
3
 62
7
  6
CONTINUOUS
 10
30.745114
 20
63.193140
 11
29.968657
 21
66.090917
  0
LINE
  8
3
 62
7
  6
CONTINUOUS
 10
30.745114
 20
63.193140
 11
31.521571
 21
66.090917
  0
LINE
  8
3
 62
7
  6
CONTINUOUS
 10
30.745114
 20
135.493140
 11
31.521571
 21
132.595363
  0
LINE
  8
3
 62
7
  6
CONTINUOUS
 10
30.745114
 20
135.493140
 11
29.968657
 21
132.595363
  0
TEXT
  8
3
 62
7
  6
CONTINUOUS
 10
30.745114
 20
93.343140
 40
4.000000
 41
0.500000
  1
(72.3)
  7
KANJI
 50
90.000000
 51
0.000000
  0
ENDBLK
  0
BLOCK
  8
3
 62
7
  6
CONTINUOUS
  2
*D8
 70
    65
 10
0.0
 20
0.0
  0
LINE
  8
3
 62
7
  6
CONTINUOUS
 10
38.813059
 20
63.193140
 11
38.813059
 21
76.693140
  0
LINE
  8
3
 62
7
  6
CONTINUOUS
 10
36.813059
 20
63.193140
 11
76.625157
 21
63.193140
  0
LINE
  8
3
 62
7
  6
CONTINUOUS
 10
36.813059
 20
76.693140
 11
73.819156
 21
76.693140
  0
LINE
  8
3
 62
7
  6
CONTINUOUS
 10
38.813059
 20
63.193140
 11
38.036602
 21
66.090917
  0
LINE
  8
3
 62
7
  6
CONTINUOUS
 10
38.813059
 20
63.193140
 11
39.589516
 21
66.090917
  0
LINE
  8
3
 62
7
  6
CONTINUOUS
 10
38.813059
 20
76.693140
 11
39.589516
 21
73.795362
  0
LINE
  8
3
 62
7
  6
CONTINUOUS
 10
38.813059
 20
76.693140
 11
38.036602
 21
73.795362
  0
TEXT
  8
3
 62
7
  6
CONTINUOUS
 10
38.813059
 20
65.943140
 40
4.000000
 41
0.500000
  1
13.5
  7
KANJI
 50
90.000000
 51
0.000000
  0
ENDBLK
  0
BLOCK
  8
3
 62
7
  6
CONTINUOUS
  2
*D9
 70
    65
 10
0.0
 20
0.0
  0
LINE
  8
3
 62
7
  6
CONTINUOUS
 10
38.813059
 20
76.693140
 11
38.813059
 21
83.693140
  0
LINE
  8
3
 62
7
  6
CONTINUOUS
 10
36.813059
 20
83.693140
 11
71.525155
 21
83.693140
  0
LINE
  8
3
 62
7
  6
CONTINUOUS
 10
38.813059
 20
76.693140
 11
38.036602
 21
79.590917
  0
LINE
  8
3
 62
7
  6
CONTINUOUS
 10
38.813059
 20
76.693140
 11
39.589516
 21
79.590917
  0
LINE
  8
3
 62
7
  6
CONTINUOUS
 10
38.813059
 20
83.693140
 11
39.589516
 21
80.795362
  0
LINE
  8
3
 62
7
  6
CONTINUOUS
 10
38.813059
 20
83.693140
 11
38.036602
 21
80.795362
  0
TEXT
  8
3
 62
7
  6
CONTINUOUS
 10
38.813059
 20
79.193140
 40
4.000000
 41
0.500000
  1
7
  7
KANJI
 50
90.000000
 51
0.000000
  0
ENDBLK
  0
BLOCK
  8
3
 62
7
  6
CONTINUOUS
  2
*D10
 70
    65
 10
0.0
 20
0.0
  0
LINE
  8
3
 62
7
  6
CONTINUOUS
 10
52.875156
 20
190.461859
 11
52.875156
 21
173.261864
  0
LINE
  8
3
 62
7
  6
CONTINUOUS
 10
50.875156
 20
190.461859
 11
71.337743
 21
190.461859
  0
LINE
  8
3
 62
7
  6
CONTINUOUS
 10
50.875156
 20
173.261864
 11
74.985981
 21
173.261864
  0
LINE
  8
3
 62
7
  6
CONTINUOUS
 10
52.875156
 20
190.461859
 11
53.651613
 21
187.564082
  0
LINE
  8
3
 62
7
  6
CONTINUOUS
 10
52.875156
 20
190.461859
 11
52.098699
 21
187.564082
  0
LINE
  8
3
 62
7
  6
CONTINUOUS
 10
52.875156
 20
173.261864
 11
52.098699
 21
176.159641
  0
LINE
  8
3
 62
7
  6
CONTINUOUS
 10
52.875156
 20
173.261864
 11
53.651613
 21
176.159641
  0
TEXT
  8
3
 62
7
  6
CONTINUOUS
 10
52.875156
 20
177.861861
 40
4.000000
 41
0.500000
  1
17.2
  7
KANJI
 50
90.000000
 51
0.000000
  0
ENDBLK
  0
BLOCK
  8
3
 62
7
  6
CONTINUOUS
  2
*D11
 70
    65
 10
0.0
 20
0.0
  0
LINE
  8
3
 62
7
  6
CONTINUOUS
 10
94.675156
 20
152.845751
 11
68.075156
 21
152.845751
  0
LINE
  8
3
 62
7
  6
CONTINUOUS
 10
94.675156
 20
154.845751
 11
94.675156
 21
97.501967
  0
LINE
  8
3
 62
7
  6
CONTINUOUS
 10
68.075156
 20
154.845751
 11
68.075156
 21
97.501964
  0
LINE
  8
3
 62
7
  6
CONTINUOUS
 10
94.675156
 20
152.845751
 11
91.777378
 21
152.069294
  0
LINE
  8
3
 62
7
  6
CONTINUOUS
 10
94.675156
 20
152.845751
 11
91.777378
 21
153.622208
  0
LINE
  8
3
 62
7
  6
CONTINUOUS
 10
68.075156
 20
152.845751
 11
70.972933
 21
153.622208
  0
LINE
  8
3
 62
7
  6
CONTINUOUS
 10
68.075156
 20
152.845751
 11
70.972933
 21
152.069294
  0
TEXT
  8
3
 62
7
  6
CONTINUOUS
 10
75.375156
 20
152.845751
 40
4.000000
 41
1.000000
  1
φ26.6
  7
KANJI
 50
0.000000
 51
0.000000
  0
ENDBLK
  0
BLOCK
  8
3
 62
7
  6
CONTINUOUS
  2
*D12
 70
    65
 10
0.0
 20
0.0
  0
LINE
  8
3
 62
7
  6
CONTINUOUS
 10
70.861540
 20
145.493140
 11
92.261540
 21
145.493140
  0
LINE
  8
3
 62
7
  6
CONTINUOUS
 10
70.861540
 20
147.493140
 11
70.861540
 21
139.915204
  0
LINE
  8
3
 62
7
  6
CONTINUOUS
 10
92.261540
 20
147.493140
 11
92.261540
 21
139.915204
  0
LINE
  8
3
 62
7
  6
CONTINUOUS
 10
70.861540
 20
145.493140
 11
73.759318
 21
146.269598
  0
LINE
  8
3
 62
7
  6
CONTINUOUS
 10
70.861540
 20
145.493140
 11
73.759318
 21
144.716683
  0
LINE
  8
3
 62
7
  6
CONTINUOUS
 10
92.261540
 20
145.493140
 11
89.363763
 21
144.716683
  0
LINE
  8
3
 62
7
  6
CONTINUOUS
 10
92.261540
 20
145.493140
 11
89.363763
 21
146.269598
  0
TEXT
  8
3
 62
7
  6
CONTINUOUS
 10
75.561540
 20
145.493140
 40
4.000000
 41
1.000000
  1
φ21.4
  7
KANJI
 50
0.000000
 51
0.000000
  0
ENDBLK
  0
ENDSEC
  0
SECTION
  2
ENTITIES
  0
LINE
  8
5
 62
7
  6
CONTINUOUS
 10
651.432184
 20
14.162731
 11
651.432184
 21
10.804041
  0
LINE
  8
5
 62
7
  6
CONTINUOUS
 10
651.001420
 20
12.434798
 11
651.001420
 21
9.076109
  0
LINE
  8
5
 62
7
  6
CONTINUOUS
 10
665.966785
 20
12.817971
 11
665.966785
 21
12.278182
  0
LINE
  8
1
 62
7
  6
CONTINUOUS
 10
68.075156
 20
88.993140
 11
94.675156
 21
88.993140
  0
LINE
  8
1
 62
7
  6
CONTINUOUS
 10
94.675156
 20
88.993140
 11
94.675156
 21
95.501967
  0
LINE
  8
1
 62
7
  6
CONTINUOUS
 10
68.130027
 20
95.793140
 11
94.620286
 21
95.793140
  0
LINE
  8
1
 62
7
  6
CONTINUOUS
 10
68.075156
 20
95.501964
 11
68.075156
 21
88.993140
  0
LINE
  8
1
 62
7
  6
CONTINUOUS
 10
92.118342
 20
97.693140
 11
94.620285
 21
95.793140
  0
LINE
  8
1
 62
7
  6
CONTINUOUS
 10
68.130027
 20
95.793140
 11
70.718341
 21
97.693140
  0
ARC
  8
1
 62
7
  6
CONTINUOUS
 10
93.875155
 20
95.501967
 40
0.800001
 50
0.000000
 51
21.343962
  0
ARC
  8
1
 62
7
  6
CONTINUOUS
 10
68.875156
 20
95.501964
 40
0.800001
 50
158.655797
 51
180.000000
  0
LINE
  8
1
 62
7
  6
CONTINUOUS
 10
213.130027
 20
95.793140
 11
239.620286
 21
95.793140
  0
LINE
  8
1
 62
7
  6
CONTINUOUS
 10
215.718341
 20
97.693140
 11
237.118342
 21
97.693140
  0
LINE
  8
1
 62
7
  6
CONTINUOUS
 10
237.118342
 20
97.693140
 11
239.620285
 21
95.793140
  0
LINE
  8
1
 62
7
  6
CONTINUOUS
 10
213.130027
 20
95.793140
 11
215.718341
 21
97.693140
  0
ARC
  8
1
 62
7
  6
CONTINUOUS
 10
238.875155
 20
95.501967
 40
0.800001
 50
0.000000
 51
21.343962
  0
ARC
  8
1
 62
7
  6
CONTINUOUS
 10
213.875156
 20
95.501964
 40
0.800001
 50
158.655797
 51
180.000000
  0
LINE
  8
1
 62
7
  6
CONTINUOUS
 10
147.475156
 20
116.993138
 11
147.475156
 21
101.493140
  0
ARC
  8
1
 62
7
  6
CONTINUOUS
 10
150.575156
 20
116.993138
 40
0.500000
 50
0.000000
 51
90.000000
  0
ARC
  8
1
 62
7
  6
CONTINUOUS
 10
147.975156
 20
116.993138
 40
0.500000
 50
90.000000
 51
180.000000
  0
LINE
  8
1
 62
7
  6
CONTINUOUS
 10
84.175156
 20
105.893138
 11
84.175156
 21
103.493138
  0
LINE
  8
1
 62
7
  6
CONTINUOUS
 10
84.175156
 20
103.493138
 11
83.575156
 21
103.493138
  0
LINE
  8
1
 62
7
  6
CONTINUOUS
 10
83.575156
 20
103.493138
 11
83.575156
 21
105.893138
  0
LINE
  8
1
 62
7
  6
CONTINUOUS
 10
83.575156
 20
105.893138
 11
84.175156
 21
105.893138
  0
LINE
  8
1
 62
7
  6
CONTINUOUS
 10
81.675156
 20
105.893138
 11
81.675156
 21
103.493138
  0
LINE
  8
1
 62
7
  6
CONTINUOUS
 10
81.675156
 20
103.493138
 11
81.075156
 21
103.493138
  0
LINE
  8
1
 62
7
  6
CONTINUOUS
 10
81.075156
 20
103.493138
 11
81.075156
 21
105.893138
  0
LINE
  8
1
 62
7
  6
CONTINUOUS
 10
81.075156
 20
105.893138
 11
81.675156
 21
105.893138
  0
LINE
  8
1
 62
7
  6
CONTINUOUS
 10
79.175156
 20
105.893138
 11
79.175156
 21
103.493138
  0
LINE
  8
1
 62
7
  6
CONTINUOUS
 10
79.175156
 20
103.493138
 11
78.575156
 21
103.493138
  0
LINE
  8
1
 62
7
  6
CONTINUOUS
 10
78.575156
 20
103.493138
 11
78.575156
 21
105.893138
  0
LINE
  8
1
 62
7
  6
CONTINUOUS
 10
78.575156
 20
105.893138
 11
79.175156
 21
105.893138
  0
LINE
  8
1
 62
7
  6
CONTINUOUS
 10
84.775156
 20
101.493140
 11
84.775156
 21
108.493138
  0
LINE
  8
1
 62
7
  6
CONTINUOUS
 10
84.775156
 20
108.493138
 11
77.975156
 21
108.493138
  0
LINE
  8
1
 62
7
  6
CONTINUOUS
 10
77.975156
 20
108.493138
 11
77.975156
 21
101.493140
  0
LINE
  8
1
 62
7
  6
CONTINUOUS
 10
77.975156
 20
101.493140
 11
87.275156
 21
101.493140
  0
LINE
  8
1
 62
7
  6
CONTINUOUS
 10
77.675156
 20
116.493138
 11
85.075156
 21
116.493138
  0
LINE
  8
1
 62
7
  6
CONTINUOUS
 10
85.075156
 20
116.493138
 11
85.075156
 21
117.493138
  0
LINE
  8
1
 62
7
  6
CONTINUOUS
 10
85.075156
 20
115.493138
 11
82.375156
 21
115.493138
  0
LINE
  8
1
 62
7
  6
CONTINUOUS
 10
82.375156
 20
115.493138
 11
82.375156
 21
113.293138
  0
LINE
  8
1
 62
7
  6
CONTINUOUS
 10
82.375156
 20
113.293138
 11
85.075156
 21
113.293138
  0
LINE
  8
1
 62
7
  6
CONTINUOUS
 10
85.075156
 20
113.293138
 11
85.075156
 21
115.493138
  0
LINE
  8
1
 62
7
  6
CONTINUOUS
 10
80.375156
 20
115.493138
 11
77.675156
 21
115.493138
  0
LINE
  8
1
 62
7
  6
CONTINUOUS
 10
77.675156
 20
115.493138
 11
77.675156
 21
113.293138
  0
LINE
  8
1
 62
7
  6
CONTINUOUS
 10
77.675156
 20
113.293138
 11
80.375156
 21
113.293138
  0
LINE
  8
1
 62
7
  6
CONTINUOUS
 10
80.375156
 20
113.293138
 11
80.375156
 21
115.493138
  0
LINE
  8
1
 62
7
  6
CONTINUOUS
 10
75.475156
 20
101.493140
 11
75.475156
 21
116.993138
  0
ARC
  8
1
 62
7
  6
CONTINUOUS
 10
75.975156
 20
116.993138
 40
0.500000
 50
90.000000
 51
180.000000
  0
LINE
  8
1
 62
7
  6
CONTINUOUS
 10
87.275156
 20
101.493140
 11
87.275156
 21
116.993138
  0
ARC
  8
1
 62
7
  6
CONTINUOUS
 10
86.775156
 20
116.993138
 40
0.500000
 50
0.000000
 51
90.000000
  0
LINE
  8
1
 62
7
  6
CONTINUOUS
 10
151.575156
 20
109.593138
 11
153.075155
 21
109.593138
  0
LINE
  8
1
 62
7
  6
CONTINUOUS
 10
151.065315
 20
109.593138
 11
152.775156
 21
109.593138
  0
LINE
  8
1
 62
7
  6
CONTINUOUS
 10
151.075156
 20
116.993138
 11
151.075156
 21
109.593138
  0
LINE
  8
1
 62
7
  6
CONTINUOUS
 10
153.075156
 20
109.593138
 11
153.075156
 21
111.993138
  0
LINE
  8
1
 62
7
  6
CONTINUOUS
 10
147.975156
 20
117.493138
 11
150.575156
 21
117.493138
  0
LINE
  8
1
 62
7
  6
CONTINUOUS
 10
213.075157
 20
88.993140
 11
239.675156
 21
88.993140
  0
LINE
  8
1
 62
7
  6
CONTINUOUS
 10
239.675156
 20
88.993140
 11
239.675156
 21
95.501967
  0
ARC
  8
1
 62
7
  6
CONTINUOUS
 10
216.025156
 20
88.493140
 40
0.500000
 50
0.000000
 51
90.000000
  0
ARC
  8
1
 62
7
  6
CONTINUOUS
 10
236.725157
 20
88.493140
 40
0.500000
 50
90.000000
 51
180.000000
  0
LINE
  8
1
 62
7
  6
CONTINUOUS
 10
213.075157
 20
95.501964
 11
213.075157
 21
88.993140
  0
LINE
  8
1
 62
7
  6
CONTINUOUS
 10
68.075156
 20
88.993140
 11
94.675156
 21
88.993140
  0
LINE
  8
1
 62
7
  6
CONTINUOUS
 10
73.525155
 20
83.693140
 11
89.225156
 21
83.693140
  0
LINE
  8
1
 62
7
  6
CONTINUOUS
 10
94.675156
 20
88.993140
 11
94.675156
 21
95.501967
  0
LINE
  8
1
 62
7
  6
CONTINUOUS
 10
68.075156
 20
95.501964
 11
68.075156
 21
88.993140
  0
LINE
  8
1
 62
7
  6
CONTINUOUS
 10
74.975156
 20
83.306016
 11
75.819156
 21
83.693140
  0
LINE
  8
1
 62
7
  6
CONTINUOUS
 10
87.796805
 20
83.306016
 11
86.952805
 21
83.693140
  0
ARC
  8
1
 62
7
  6
CONTINUOUS
 10
218.525156
 20
85.693140
 40
2.000000
 50
180.000000
 51
-90.000000
  0
ARC
  8
1
 62
7
  6
CONTINUOUS
 10
234.225157
 20
85.693140
 40
2.000000
 50
-90.000000
 51
0.000000
  0
LINE
  8
1
 62
7
  6
CONTINUOUS
 10
218.525156
 20
83.693140
 11
234.225157
 21
83.693140
  0
LINE
  8
1
 62
7
  6
CONTINUOUS
 10
216.525156
 20
88.493140
 11
216.525156
 21
85.693140
  0
LINE
  8
1
 62
7
  6
CONTINUOUS
 10
236.225157
 20
85.693140
 11
236.225157
 21
88.493140
  0
LINE
  8
1
 62
7
  6
CONTINUOUS
 10
219.964333
 20
83.306016
 11
220.808333
 21
83.693140
  0
LINE
  8
1
 62
7
  6
CONTINUOUS
 10
232.785982
 20
83.306016
 11
231.941982
 21
83.693140
  0
LINE
  8
1
 62
7
  6
CONTINUOUS
 10
219.975156
 20
83.306016
 11
220.819156
 21
83.693140
  0
LINE
  8
1
 62
7
  6
CONTINUOUS
 10
232.796806
 20
83.306016
 11
231.952806
 21
83.693140
  0
LINE
  8
1
 62
7
  6
CONTINUOUS
 10
161.931156
 20
76.693140
 11
156.375156
 21
76.693140
  0
LINE
  8
1
 62
7
  6
CONTINUOUS
 10
150.819156
 20
76.693140
 11
156.375156
 21
76.693140
  0
LINE
  8
1
 62
7
  6
CONTINUOUS
 10
156.375156
 20
83.185908
 11
156.375156
 21
77.200301
  0
ARC
  8
1
 62
7
  6
CONTINUOUS
 10
159.375156
 20
74.567835
 40
9.125305
 50
70.806705
 51
109.193295
  0
LINE
  8
1
 62
7
  6
CONTINUOUS
 10
161.287392
 20
83.693140
 11
162.375156
 21
83.185907
  0
ARC
  8
1
 62
7
  6
CONTINUOUS
 10
153.375156
 20
74.567835
 40
9.125305
 50
70.806705
 51
109.193295
  0
LINE
  8
1
 62
7
  6
CONTINUOUS
 10
151.462920
 20
83.693140
 11
150.375156
 21
83.185907
  0
ARC
  8
1
 62
7
  6
CONTINUOUS
 10
159.375156
 20
82.446894
 40
5.753754
 50
-121.426125
 51
-58.573875
  0
ARC
  8
1
 62
7
  6
CONTINUOUS
 10
153.375156
 20
82.446889
 40
5.753749
 50
-121.426151
 51
-58.573849
  0
LINE
  8
1
 62
7
  6
CONTINUOUS
 10
162.375156
 20
83.185908
 11
162.375156
 21
77.537140
  0
LINE
  8
1
 62
7
  6
CONTINUOUS
 10
150.375156
 20
83.185908
 11
150.375156
 21
77.537140
  0
LINE
  8
1
 62
7
  6
CONTINUOUS
 10
161.931156
 20
76.693140
 11
162.375156
 21
77.537140
  0
LINE
  8
1
 62
7
  6
CONTINUOUS
 10
150.819156
 20
76.693140
 11
150.375156
 21
77.537140
  0
LINE
  8
1
 62
7
  6
CONTINUOUS
 10
161.931156
 20
76.693140
 11
156.375156
 21
76.693140
  0
LINE
  8
1
 62
7
  6
CONTINUOUS
 10
150.819156
 20
76.693140
 11
156.375156
 21
76.693140
  0
LINE
  8
1
 62
7
  6
CONTINUOUS
 10
94.675156
 20
88.993140
 11
94.675156
 21
95.501967
  0
LINE
  8
1
 62
7
  6
CONTINUOUS
 10
68.075156
 20
95.501964
 11
68.075156
 21
88.993140
  0
ARC
  8
1
 62
7
  6
CONTINUOUS
 10
93.875155
 20
95.501967
 40
0.800001
 50
0.000000
 51
21.343962
  0
ARC
  8
1
 62
7
  6
CONTINUOUS
 10
68.875156
 20
95.501964
 40
0.800001
 50
158.655797
 51
180.000000
  0
LINE
  8
1
 62
7
  6
CONTINUOUS
 10
87.775156
 20
81.393140
 11
99.875156
 21
81.393140
  0
LINE
  8
1
 62
7
  6
CONTINUOUS
 10
99.875156
 20
105.393140
 11
92.118341
 21
105.393140
  0
CIRCLE
  8
1
 62
7
  6
CONTINUOUS
 10
110.375156
 20
93.393140
 40
2.250000
  0
LINE
  8
1
 62
7
  6
CONTINUOUS
 10
99.875156
 20
81.393140
 11
113.507611
 21
85.937292
  0
ARC
  8
1
 62
7
  6
CONTINUOUS
 10
112.875156
 20
87.834658
 40
2.000000
 50
-71.565051
 51
0.000000
  0
LINE
  8
1
 62
7
  6
CONTINUOUS
 10
114.875156
 20
87.834658
 11
114.875156
 21
98.951622
  0
LINE
  8
1
 62
7
  6
CONTINUOUS
 10
113.507611
 20
100.848988
 11
99.875156
 21
105.393140
  0
ARC
  8
1
 62
7
  6
CONTINUOUS
 10
112.875156
 20
98.951622
 40
2.000000
 50
0.000000
 51
71.565051
  0
LINE
  8
1
 62
7
  6
CONTINUOUS
 10
94.375156
 20
102.793140
 11
89.375156
 21
102.793140
  0
LINE
  8
1
 62
7
  6
CONTINUOUS
 10
101.375156
 20
95.193140
 11
101.375156
 21
88.993140
  0
LINE
  8
1
 62
7
  6
CONTINUOUS
 10
101.375156
 20
88.993140
 11
89.375156
 21
88.993140
  0
LINE
  8
1
 62
7
  6
CONTINUOUS
 10
93.375156
 20
88.993140
 11
93.375156
 21
83.993140
  0
LINE
  8
1
 62
7
  6
CONTINUOUS
 10
93.375156
 20
83.993140
 11
90.375156
 21
83.993140
  0
LINE
  8
1
 62
7
  6
CONTINUOUS
 10
90.375156
 20
83.993140
 11
90.375156
 21
88.993140
  0
LINE
  8
1
 62
7
  6
CONTINUOUS
 10
74.975156
 20
81.393140
 11
62.875156
 21
81.393140
  0
LINE
  8
1
 62
7
  6
CONTINUOUS
 10
62.875156
 20
105.393140
 11
70.631970
 21
105.393140
  0
CIRCLE
  8
1
 62
7
  6
CONTINUOUS
 10
52.375156
 20
93.393140
 40
2.250000
  0
LINE
  8
1
 62
7
  6
CONTINUOUS
 10
62.875156
 20
81.393140
 11
49.242700
 21
85.937292
  0
ARC
  8
1
 62
7
  6
CONTINUOUS
 10
49.875156
 20
87.834658
 40
2.000000
 50
180.000000
 51
-108.434949
  0
LINE
  8
1
 62
7
  6
CONTINUOUS
 10
47.875156
 20
87.834658
 11
47.875156
 21
98.951622
  0
LINE
  8
1
 62
7
  6
CONTINUOUS
 10
49.242700
 20
100.848988
 11
62.875156
 21
105.393140
  0
ARC
  8
1
 62
7
  6
CONTINUOUS
 10
49.875156
 20
98.951622
 40
2.000000
 50
108.434949
 51
180.000000
  0
LINE
  8
1
 62
7
  6
CONTINUOUS
 10
68.375156
 20
102.793140
 11
73.375156
 21
102.793140
  0
LINE
  8
1
 62
7
  6
CONTINUOUS
 10
61.375156
 20
95.193140
 11
61.375156
 21
88.993140
  0
LINE
  8
1
 62
7
  6
CONTINUOUS
 10
61.375156
 20
88.993140
 11
73.375156
 21
88.993140
  0
LINE
  8
1
 62
7
  6
CONTINUOUS
 10
69.375156
 20
88.993140
 11
69.375156
 21
83.993140
  0
LINE
  8
1
 62
7
  6
CONTINUOUS
 10
69.375156
 20
83.993140
 11
72.375156
 21
83.993140
  0
LINE
  8
1
 62
7
  6
CONTINUOUS
 10
72.375156
 20
83.993140
 11
72.375156
 21
88.993140
  0
LINE
  8
1
 62
7
  6
CONTINUOUS
 10
94.675156
 20
95.193140
 11
101.375156
 21
95.193140
  0
LINE
  8
1
 62
7
  6
CONTINUOUS
 10
94.375156
 20
97.793140
 11
94.375156
 21
102.793140
  0
LINE
  8
1
 62
7
  6
CONTINUOUS
 10
89.375156
 20
102.793140
 11
89.375156
 21
97.693140
  0
LINE
  8
1
 62
7
  6
CONTINUOUS
 10
73.375156
 20
102.793140
 11
73.375156
 21
97.693140
  0
LINE
  8
1
 62
7
  6
CONTINUOUS
 10
68.375156
 20
102.793140
 11
68.375156
 21
97.793140
  0
LINE
  8
1
 62
7
  6
CONTINUOUS
 10
68.075156
 20
95.193140
 11
61.375156
 21
95.193140
  0
LINE
  8
1
 62
7
  6
CONTINUOUS
 10
105.697337
 20
100.047653
 11
105.697337
 21
96.547653
  0
LINE
  8
1
 62
7
  6
CONTINUOUS
 10
105.697337
 20
96.547653
 11
111.347337
 21
96.547653
  0
LINE
  8
1
 62
7
  6
CONTINUOUS
 10
111.347337
 20
96.547653
 11
111.347337
 21
100.047653
  0
LINE
  8
1
 62
7
  6
CONTINUOUS
 10
111.347337
 20
100.047653
 11
105.697337
 21
100.047653
  0
LINE
  8
1
 62
7
  6
CONTINUOUS
 10
68.375156
 20
97.693140
 11
94.375156
 21
97.693140
  0
LINE
  8
1
 62
7
  6
CONTINUOUS
 10
73.375156
 20
101.493140
 11
89.375156
 21
101.493140
  0
LINE
  8
1
 62
7
  6
CONTINUOUS
 10
148.310607
 20
83.693140
 11
164.010609
 21
83.693140
  0
ARC
  8
1
 62
7
  6
CONTINUOUS
 10
148.310607
 20
85.693140
 40
2.000000
 50
180.000000
 51
-90.000000
  0
ARC
  8
1
 62
7
  6
CONTINUOUS
 10
145.810607
 20
88.493140
 40
0.500000
 50
0.000000
 51
90.000000
  0
LINE
  8
1
 62
7
  6
CONTINUOUS
 10
146.310607
 20
88.493140
 11
146.310607
 21
85.693140
  0
LINE
  8
1
 62
7
  6
CONTINUOUS
 10
142.860608
 20
95.501964
 11
142.860608
 21
88.993140
  0
LINE
  8
1
 62
7
  6
CONTINUOUS
 10
142.915479
 20
95.793140
 11
145.503793
 21
97.693140
  0
ARC
  8
1
 62
7
  6
CONTINUOUS
 10
143.660609
 20
95.501964
 40
0.800001
 50
158.655797
 51
180.000000
  0
ARC
  8
1
 62
7
  6
CONTINUOUS
 10
146.143643
 20
100.993140
 40
0.500000
 50
90.000000
 51
180.000000
  0
LINE
  8
1
 62
7
  6
CONTINUOUS
 10
146.143643
 20
101.493140
 11
148.024147
 21
101.493140
  0
LINE
  8
1
 62
7
  6
CONTINUOUS
 10
145.663140
 20
97.693140
 11
145.663140
 21
101.131403
  0
LINE
  8
1
 62
7
  6
CONTINUOUS
 10
170.160608
 20
81.393140
 11
170.160608
 21
105.393140
  0
LINE
  8
1
 62
7
  6
CONTINUOUS
 10
165.160608
 20
81.393140
 11
170.160608
 21
81.393140
  0
ARC
  8
1
 62
7
  6
CONTINUOUS
 10
165.160608
 20
82.393140
 40
1.000000
 50
180.000000
 51
-90.000000
  0
LINE
  8
1
 62
7
  6
CONTINUOUS
 10
170.160608
 20
105.393140
 11
165.160608
 21
105.393140
  0
LINE
  8
1
 62
7
  6
CONTINUOUS
 10
164.160608
 20
104.393140
 11
164.160608
 21
82.393140
  0
ARC
  8
1
 62
7
  6
CONTINUOUS
 10
165.160608
 20
104.393140
 40
1.000000
 50
90.000000
 51
180.000000
  0
LINE
  8
1
 62
7
  6
CONTINUOUS
 10
164.160608
 20
102.793140
 11
149.160608
 21
102.793140
  0
LINE
  8
1
 62
7
  6
CONTINUOUS
 10
149.160608
 20
88.993140
 11
149.160608
 21
83.993140
  0
LINE
  8
1
 62
7
  6
CONTINUOUS
 10
149.160608
 20
83.993140
 11
164.160608
 21
83.993140
  0
LINE
  8
1
 62
7
  6
CONTINUOUS
 10
152.160608
 20
95.193140
 11
152.160608
 21
88.993140
  0
LINE
  8
1
 62
7
  6
CONTINUOUS
 10
158.160608
 20
95.193140
 11
158.160608
 21
88.993140
  0
LINE
  8
1
 62
7
  6
CONTINUOUS
 10
162.160608
 20
95.193140
 11
162.160608
 21
88.993140
  0
LINE
  8
1
 62
7
  6
CONTINUOUS
 10
149.160608
 20
102.793140
 11
149.160608
 21
97.693140
  0
LINE
  8
1
 62
7
  6
CONTINUOUS
 10
152.160608
 20
95.193140
 11
164.160608
 21
95.193140
  0
LINE
  8
1
 62
7
  6
CONTINUOUS
 10
145.663140
 20
97.693140
 11
164.160608
 21
97.693140
  0
LINE
  8
1
 62
7
  6
CONTINUOUS
 10
142.915479
 20
95.793140
 11
164.160608
 21
95.793140
  0
LINE
  8
1
 62
7
  6
CONTINUOUS
 10
142.860608
 20
88.993140
 11
164.160608
 21
88.993140
  0
LINE
  8
1
 62
7
  6
CONTINUOUS
 10
149.160608
 20
101.493140
 11
146.358191
 21
101.493140
  0
ARC
  8
1
 62
7
  6
CONTINUOUS
 10
91.539769
 20
134.993140
 40
0.500000
 50
0.000000
 51
90.000000
  0
ARC
  8
1
 62
7
  6
CONTINUOUS
 10
71.139769
 20
134.993140
 40
0.500000
 50
90.000000
 51
180.000000
  0
LINE
  8
1
 62
7
  6
CONTINUOUS
 10
71.139769
 20
135.493140
 11
91.539769
 21
135.493140
  0
LINE
  8
1
 62
7
  6
CONTINUOUS
 10
92.118341
 20
134.993140
 11
92.118341
 21
102.793140
  0
LINE
  8
1
 62
7
  6
CONTINUOUS
 10
70.718341
 20
135.493140
 11
70.718341
 21
102.793140
  0
LINE
  8
1
 62
7
  6
CONTINUOUS
 10
77.675156
 20
117.493138
 11
77.675156
 21
116.493138
  0
ARC
  8
1
 62
7
  6
CONTINUOUS
 10
236.519759
 20
134.993140
 40
0.500000
 50
0.000000
 51
90.000000
  0
ARC
  8
1
 62
7
  6
CONTINUOUS
 10
216.119759
 20
134.993140
 40
0.500000
 50
90.000000
 51
180.000000
  0
LINE
  8
1
 62
7
  6
CONTINUOUS
 10
216.119759
 20
135.493140
 11
236.519759
 21
135.493140
  0
LINE
  8
1
 62
7
  6
CONTINUOUS
 10
237.019759
 20
134.993140
 11
237.019759
 21
97.693140
  0
LINE
  8
1
 62
7
  6
CONTINUOUS
 10
215.619759
 20
134.993140
 11
215.619759
 21
97.693140
  0
LINE
  8
1
 62
7
  6
CONTINUOUS
 10
217.626574
 20
118.293140
 11
234.926574
 21
118.293140
  0
LINE
  8
1
 62
7
  6
CONTINUOUS
 10
234.926574
 20
135.493140
 11
234.926574
 21
118.293140
  0
LINE
  8
1
 62
7
  6
CONTINUOUS
 10
217.626574
 20
135.493140
 11
217.626574
 21
118.293140
  0
ARC
  8
1
 62
7
  6
CONTINUOUS
 10
157.160608
 20
134.993140
 40
0.500000
 50
90.000000
 51
180.000000
  0
LINE
  8
1
 62
7
  6
CONTINUOUS
 10
156.660608
 20
112.493138
 11
156.660608
 21
134.993140
  0
LINE
  8
1
 62
7
  6
CONTINUOUS
 10
149.046111
 20
117.493138
 11
156.660608
 21
117.493138
  0
LINE
  8
1
 62
7
  6
CONTINUOUS
 10
166.860607
 20
118.284966
 11
166.860607
 21
105.393140
  0
ARC
  8
1
 62
7
  6
CONTINUOUS
 10
163.460296
 20
134.984966
 40
0.500000
 50
0.000000
 51
90.000000
  0
LINE
  8
1
 62
7
  6
CONTINUOUS
 10
81.375156
 20
63.193140
 11
84.125154
 21
63.193140
  0
LINE
  8
1
 62
7
  6
CONTINUOUS
 10
86.931156
 20
76.693140
 11
81.375156
 21
76.693140
  0
LINE
  8
1
 62
7
  6
CONTINUOUS
 10
86.931156
 20
74.893140
 11
81.375156
 21
74.893140
  0
LINE
  8
1
 62
7
  6
CONTINUOUS
 10
75.819156
 20
76.693140
 11
81.375156
 21
76.693140
  0
LINE
  8
1
 62
7
  6
CONTINUOUS
 10
75.819156
 20
74.893140
 11
81.375156
 21
74.893140
  0
ARC
  8
1
 62
7
  6
CONTINUOUS
 10
86.175156
 20
80.193140
 40
3.500000
 50
62.797106
 51
117.202894
  0
ARC
  8
1
 62
7
  6
CONTINUOUS
 10
76.575156
 20
80.193140
 40
3.500000
 50
62.797106
 51
117.202894
  0
ARC
  8
1
 62
7
  6
CONTINUOUS
 10
81.375156
 20
73.193140
 40
10.500000
 50
72.486071
 51
107.743840
  0
LINE
  8
1
 62
7
  6
CONTINUOUS
 10
74.975156
 20
83.306016
 11
75.819156
 21
83.693140
  0
LINE
  8
1
 62
7
  6
CONTINUOUS
 10
87.796805
 20
83.306016
 11
86.952805
 21
83.693140
  0
LINE
  8
1
 62
7
  6
CONTINUOUS
 10
85.975156
 20
65.043140
 11
85.975156
 21
66.893140
  0
LINE
  8
1
 62
7
  6
CONTINUOUS
 10
84.125154
 20
63.193140
 11
85.975155
 21
65.043140
  0
LINE
  8
1
 62
7
  6
CONTINUOUS
 10
81.375156
 20
65.043140
 11
85.975154
 21
65.043140
  0
LINE
  8
1
 62
7
  6
CONTINUOUS
 10
81.375156
 20
66.893140
 11
85.975156
 21
66.893140
  0
LINE
  8
1
 62
7
  6
CONTINUOUS
 10
86.931156
 20
67.849135
 11
86.931156
 21
76.693140
  0
LINE
  8
1
 62
7
  6
CONTINUOUS
 10
86.931156
 20
67.849135
 11
81.375156
 21
67.849135
  0
LINE
  8
1
 62
7
  6
CONTINUOUS
 10
85.975156
 20
66.893135
 11
86.931156
 21
67.849135
  0
LINE
  8
1
 62
7
  6
CONTINUOUS
 10
87.775156
 20
83.306016
 11
87.775156
 21
77.537140
  0
LINE
  8
1
 62
7
  6
CONTINUOUS
 10
86.931156
 20
76.693140
 11
87.775156
 21
77.537140
  0
ARC
  8
1
 62
7
  6
CONTINUOUS
 10
81.375156
 20
83.181485
 40
6.488346
 50
-119.550597
 51
-60.449403
  0
LINE
  8
1
 62
7
  6
CONTINUOUS
 10
84.575156
 20
83.306016
 11
84.575156
 21
77.537140
  0
LINE
  8
1
 62
7
  6
CONTINUOUS
 10
78.175156
 20
83.306016
 11
78.175156
 21
77.537140
  0
LINE
  8
1
 62
7
  6
CONTINUOUS
 10
81.375156
 20
63.193140
 11
78.625157
 21
63.193140
  0
LINE
  8
1
 62
7
  6
CONTINUOUS
 10
76.775156
 20
65.043140
 11
76.775156
 21
66.893140
  0
LINE
  8
1
 62
7
  6
CONTINUOUS
 10
78.625157
 20
63.193140
 11
76.775156
 21
65.043140
  0
LINE
  8
1
 62
7
  6
CONTINUOUS
 10
81.375156
 20
65.043140
 11
76.775157
 21
65.043140
  0
LINE
  8
1
 62
7
  6
CONTINUOUS
 10
81.375156
 20
66.893140
 11
76.775156
 21
66.893140
  0
LINE
  8
1
 62
7
  6
CONTINUOUS
 10
75.819156
 20
67.849135
 11
75.819156
 21
76.693140
  0
LINE
  8
1
 62
7
  6
CONTINUOUS
 10
75.819156
 20
67.849135
 11
81.375156
 21
67.849135
  0
LINE
  8
1
 62
7
  6
CONTINUOUS
 10
76.775156
 20
66.893135
 11
75.819156
 21
67.849135
  0
LINE
  8
1
 62
7
  6
CONTINUOUS
 10
74.975156
 20
83.306016
 11
74.975156
 21
77.537140
  0
LINE
  8
1
 62
7
  6
CONTINUOUS
 10
75.819156
 20
76.693140
 11
74.975156
 21
77.537140
  0
ARC
  8
1
 62
7
  6
CONTINUOUS
 10
86.175156
 20
78.631306
 40
1.938349
 50
-145.633597
 51
-55.633498
  0
ARC
  8
1
 62
7
  6
CONTINUOUS
 10
76.575156
 20
78.631306
 40
1.938349
 50
-124.366502
 51
-34.366403
  0
LINE
  8
1
 62
7
  6
CONTINUOUS
 10
86.931156
 20
74.893140
 11
81.375156
 21
74.893140
  0
LINE
  8
1
 62
7
  6
CONTINUOUS
 10
75.819156
 20
74.893140
 11
81.375156
 21
74.893140
  0
LINE
  8
1
 62
7
  6
CONTINUOUS
 10
86.931156
 20
74.893140
 11
81.375156
 21
74.893140
  0
LINE
  8
1
 62
7
  6
CONTINUOUS
 10
75.819156
 20
74.893140
 11
81.375156
 21
74.893140
  0
LINE
  8
1
 62
7
  6
CONTINUOUS
 10
226.375156
 20
63.193140
 11
229.125155
 21
63.193140
  0
LINE
  8
1
 62
7
  6
CONTINUOUS
 10
231.931156
 20
76.693140
 11
226.375156
 21
76.693140
  0
LINE
  8
1
 62
7
  6
CONTINUOUS
 10
231.931156
 20
74.893140
 11
226.375156
 21
74.893140
  0
LINE
  8
1
 62
7
  6
CONTINUOUS
 10
220.819156
 20
76.693140
 11
226.375156
 21
76.693140
  0
LINE
  8
1
 62
7
  6
CONTINUOUS
 10
220.819156
 20
74.893140
 11
226.375156
 21
74.893140
  0
ARC
  8
1
 62
7
  6
CONTINUOUS
 10
231.175156
 20
80.193140
 40
3.500000
 50
62.797106
 51
117.202894
  0
ARC
  8
1
 62
7
  6
CONTINUOUS
 10
221.575156
 20
80.193140
 40
3.500000
 50
62.797106
 51
117.202894
  0
ARC
  8
1
 62
7
  6
CONTINUOUS
 10
226.375156
 20
73.193140
 40
10.500000
 50
72.486071
 51
107.743840
  0
LINE
  8
1
 62
7
  6
CONTINUOUS
 10
219.975156
 20
83.306016
 11
220.819156
 21
83.693140
  0
LINE
  8
1
 62
7
  6
CONTINUOUS
 10
232.796806
 20
83.306016
 11
231.952806
 21
83.693140
  0
LINE
  8
1
 62
7
  6
CONTINUOUS
 10
230.975157
 20
65.043140
 11
230.975156
 21
66.893140
  0
LINE
  8
1
 62
7
  6
CONTINUOUS
 10
229.125155
 20
63.193140
 11
230.975156
 21
65.043140
  0
LINE
  8
1
 62
7
  6
CONTINUOUS
 10
226.375156
 20
65.043140
 11
230.975155
 21
65.043140
  0
LINE
  8
1
 62
7
  6
CONTINUOUS
 10
226.375156
 20
66.893140
 11
230.975156
 21
66.893140
  0
LINE
  8
1
 62
7
  6
CONTINUOUS
 10
231.931156
 20
67.849135
 11
231.931156
 21
76.693140
  0
LINE
  8
1
 62
7
  6
CONTINUOUS
 10
231.931156
 20
67.849135
 11
226.375156
 21
67.849135
  0
LINE
  8
1
 62
7
  6
CONTINUOUS
 10
230.975156
 20
66.893135
 11
231.931156
 21
67.849135
  0
LINE
  8
1
 62
7
  6
CONTINUOUS
 10
232.775156
 20
83.306016
 11
232.775156
 21
77.537140
  0
LINE
  8
1
 62
7
  6
CONTINUOUS
 10
231.931156
 20
76.693140
 11
232.775156
 21
77.537140
  0
ARC
  8
1
 62
7
  6
CONTINUOUS
 10
226.375156
 20
83.181485
 40
6.488346
 50
-119.550597
 51
-60.449403
  0
LINE
  8
1
 62
7
  6
CONTINUOUS
 10
229.575156
 20
83.306016
 11
229.575156
 21
77.537140
  0
LINE
  8
1
 62
7
  6
CONTINUOUS
 10
223.175156
 20
83.306016
 11
223.175156
 21
77.537140
  0
LINE
  8
1
 62
7
  6
CONTINUOUS
 10
226.375156
 20
63.193140
 11
223.625158
 21
63.193140
  0
LINE
  8
1
 62
7
  6
CONTINUOUS
 10
221.775156
 20
65.043140
 11
221.775156
 21
66.893140
  0
LINE
  8
1
 62
7
  6
CONTINUOUS
 10
223.625158
 20
63.193140
 11
221.775157
 21
65.043140
  0
LINE
  8
1
 62
7
  6
CONTINUOUS
 10
226.375156
 20
65.043140
 11
221.775158
 21
65.043140
  0
LINE
  8
1
 62
7
  6
CONTINUOUS
 10
226.375156
 20
66.893140
 11
221.775156
 21
66.893140
  0
LINE
  8
1
 62
7
  6
CONTINUOUS
 10
220.819156
 20
67.849135
 11
220.819156
 21
76.693140
  0
LINE
  8
1
 62
7
  6
CONTINUOUS
 10
220.819156
 20
67.849135
 11
226.375156
 21
67.849135
  0
LINE
  8
1
 62
7
  6
CONTINUOUS
 10
221.775156
 20
66.893135
 11
220.819156
 21
67.849135
  0
LINE
  8
1
 62
7
  6
CONTINUOUS
 10
219.975156
 20
83.306016
 11
219.975156
 21
77.537140
  0
LINE
  8
1
 62
7
  6
CONTINUOUS
 10
220.819156
 20
76.693140
 11
219.975156
 21
77.537140
  0
ARC
  8
1
 62
7
  6
CONTINUOUS
 10
231.175156
 20
78.631306
 40
1.938349
 50
-145.633597
 51
-55.633498
  0
ARC
  8
1
 62
7
  6
CONTINUOUS
 10
221.575157
 20
78.631306
 40
1.938349
 50
-124.366502
 51
-34.366403
  0
LINE
  8
1
 62
7
  6
CONTINUOUS
 10
231.931156
 20
74.893140
 11
226.375156
 21
74.893140
  0
LINE
  8
1
 62
7
  6
CONTINUOUS
 10
220.819156
 20
74.893140
 11
226.375156
 21
74.893140
  0
LINE
  8
1
 62
7
  6
CONTINUOUS
 10
231.931156
 20
74.893140
 11
226.375156
 21
74.893140
  0
LINE
  8
1
 62
7
  6
CONTINUOUS
 10
220.819156
 20
74.893140
 11
226.375156
 21
74.893140
  0
LINE
  8
1
 62
7
  6
CONTINUOUS
 10
156.375156
 20
63.193140
 11
159.125155
 21
63.193140
  0
LINE
  8
1
 62
7
  6
CONTINUOUS
 10
161.931156
 20
74.893140
 11
156.375156
 21
74.893140
  0
LINE
  8
1
 62
7
  6
CONTINUOUS
 10
150.819156
 20
74.893140
 11
156.375156
 21
74.893140
  0
LINE
  8
1
 62
7
  6
CONTINUOUS
 10
160.975157
 20
65.043140
 11
160.975156
 21
66.893140
  0
LINE
  8
1
 62
7
  6
CONTINUOUS
 10
159.125155
 20
63.193140
 11
160.975156
 21
65.043140
  0
LINE
  8
1
 62
7
  6
CONTINUOUS
 10
156.375156
 20
65.043140
 11
160.975155
 21
65.043140
  0
LINE
  8
1
 62
7
  6
CONTINUOUS
 10
156.375156
 20
66.893140
 11
160.975156
 21
66.893140
  0
LINE
  8
1
 62
7
  6
CONTINUOUS
 10
161.931156
 20
67.849135
 11
161.931156
 21
76.693140
  0
LINE
  8
1
 62
7
  6
CONTINUOUS
 10
161.931156
 20
67.849135
 11
156.375156
 21
67.849135
  0
LINE
  8
1
 62
7
  6
CONTINUOUS
 10
160.975156
 20
66.893135
 11
161.931156
 21
67.849135
  0
LINE
  8
1
 62
7
  6
CONTINUOUS
 10
156.375156
 20
63.193140
 11
153.625158
 21
63.193140
  0
LINE
  8
1
 62
7
  6
CONTINUOUS
 10
151.775156
 20
65.043140
 11
151.775156
 21
66.893140
  0
LINE
  8
1
 62
7
  6
CONTINUOUS
 10
153.625158
 20
63.193140
 11
151.775157
 21
65.043140
  0
LINE
  8
1
 62
7
  6
CONTINUOUS
 10
156.375156
 20
65.043140
 11
151.775158
 21
65.043140
  0
LINE
  8
1
 62
7
  6
CONTINUOUS
 10
156.375156
 20
66.893140
 11
151.775156
 21
66.893140
  0
LINE
  8
1
 62
7
  6
CONTINUOUS
 10
150.819156
 20
67.849135
 11
150.819156
 21
76.693140
  0
LINE
  8
1
 62
7
  6
CONTINUOUS
 10
150.819156
 20
67.849135
 11
156.375156
 21
67.849135
  0
LINE
  8
1
 62
7
  6
CONTINUOUS
 10
151.775156
 20
66.893135
 11
150.819156
 21
67.849135
  0
LINE
  8
1
 62
7
  6
CONTINUOUS
 10
161.931156
 20
74.893140
 11
156.375156
 21
74.893140
  0
LINE
  8
1
 62
7
  6
CONTINUOUS
 10
150.819156
 20
74.893140
 11
156.375156
 21
74.893140
  0
LINE
  8
1
 62
7
  6
CONTINUOUS
 10
161.931156
 20
74.893140
 11
156.375156
 21
74.893140
  0
LINE
  8
1
 62
7
  6
CONTINUOUS
 10
150.819156
 20
74.893140
 11
156.375156
 21
74.893140
  0
LINE
  8
1
 62
7
  6
CONTINUOUS
 10
198.460262
 20
172.363113
 11
198.460262
 21
162.063113
  0
LINE
  8
1
 62
7
  6
CONTINUOUS
 10
198.460262
 20
162.563113
 11
212.060262
 21
162.563113
  0
LINE
  8
1
 62
7
  6
CONTINUOUS
 10
198.460262
 20
163.563113
 11
211.210262
 21
163.563113
  0
LINE
  8
1
 62
7
  6
CONTINUOUS
 10
198.460262
 20
170.863113
 11
211.210262
 21
170.863113
  0
LINE
  8
1
 62
7
  6
CONTINUOUS
 10
211.210262
 20
165.813113
 11
211.210262
 21
163.563113
  0
LINE
  8
1
 62
7
  6
CONTINUOUS
 10
211.210262
 20
170.863113
 11
211.210262
 21
168.613113
  0
LINE
  8
1
 62
7
  6
CONTINUOUS
 10
198.460262
 20
171.863113
 11
212.210262
 21
171.863113
  0
LINE
  8
1
 62
7
  6
CONTINUOUS
 10
212.210262
 20
171.863113
 11
212.210262
 21
169.613113
  0
LINE
  8
1
 62
7
  6
CONTINUOUS
 10
212.210262
 20
169.613113
 11
223.060262
 21
169.613113
  0
LINE
  8
1
 62
7
  6
CONTINUOUS
 10
212.210262
 20
164.813113
 11
212.210262
 21
162.563113
  0
LINE
  8
1
 62
7
  6
CONTINUOUS
 10
218.560262
 20
168.613113
 11
218.560262
 21
165.813113
  0
LINE
  8
1
 62
7
  6
CONTINUOUS
 10
221.060262
 20
168.613113
 11
221.060262
 21
165.813113
  0
LINE
  8
1
 62
7
  6
CONTINUOUS
 10
219.560262
 20
168.613113
 11
219.560262
 21
165.813113
  0
LINE
  8
1
 62
7
  6
CONTINUOUS
 10
211.210262
 20
168.613113
 11
218.560262
 21
168.613113
  0
LINE
  8
1
 62
7
  6
CONTINUOUS
 10
211.210262
 20
165.813113
 11
218.560262
 21
165.813113
  0
LINE
  8
1
 62
7
  6
CONTINUOUS
 10
222.060262
 20
169.613113
 11
222.060262
 21
168.613113
  0
LINE
  8
1
 62
7
  6
CONTINUOUS
 10
222.060262
 20
165.813113
 11
222.060262
 21
164.813113
  0
LINE
  8
1
 62
7
  6
CONTINUOUS
 10
219.560262
 20
168.613113
 11
223.060262
 21
168.613113
  0
LINE
  8
1
 62
7
  6
CONTINUOUS
 10
219.560262
 20
165.813113
 11
223.060262
 21
165.813113
  0
LINE
  8
1
 62
7
  6
CONTINUOUS
 10
212.210262
 20
164.813113
 11
223.060262
 21
164.813113
  0
LINE
  8
1
 62
7
  6
CONTINUOUS
 10
198.460262
 20
172.363113
 11
222.060262
 21
172.363113
  0
LINE
  8
1
 62
7
  6
CONTINUOUS
 10
198.460262
 20
162.063113
 11
222.060262
 21
162.063113
  0
LINE
  8
1
 62
7
  6
CONTINUOUS
 10
212.210262
 20
175.033113
 11
214.189359
 21
176.074743
  0
ARC
  8
1
 62
7
  6
CONTINUOUS
 10
215.120852
 20
174.304907
 40
2.000000
 50
65.356710
 51
117.758541
  0
LINE
  8
1
 62
7
  6
CONTINUOUS
 10
214.193904
 20
158.389091
 11
212.210262
 21
159.433113
  0
ARC
  8
1
 62
7
  6
CONTINUOUS
 10
215.125396
 20
160.158927
 40
2.000000
 50
-117.758541
 51
-65.593829
  0
LINE
  8
1
 62
7
  6
CONTINUOUS
 10
222.060262
 20
172.363113
 11
215.560262
 21
175.033113
  0
LINE
  8
1
 62
7
  6
CONTINUOUS
 10
212.210262
 20
175.033113
 11
215.560262
 21
175.033113
  0
LINE
  8
1
 62
7
  6
CONTINUOUS
 10
215.560262
 20
159.433113
 11
222.060262
 21
162.063113
  0
LINE
  8
1
 62
7
  6
CONTINUOUS
 10
212.210262
 20
159.433113
 11
215.560262
 21
159.433113
  0
LINE
  8
1
 62
7
  6
CONTINUOUS
 10
222.477229
 20
173.130579
 11
215.954787
 21
176.122749
  0
ARC
  8
1
 62
7
  6
CONTINUOUS
 10
222.060262
 20
172.221658
 40
1.000000
 50
0.000000
 51
65.356710
  0
LINE
  8
1
 62
7
  6
CONTINUOUS
 10
222.473464
 20
161.296854
 11
215.951801
 21
158.337649
  0
LINE
  8
1
 62
7
  6
CONTINUOUS
 10
223.060262
 20
172.221658
 11
223.060262
 21
162.207493
  0
ARC
  8
1
 62
7
  6
CONTINUOUS
 10
222.060262
 20
162.207493
 40
1.000000
 50
-65.593829
 51
0.000000
  0
LINE
  8
1
 62
7
  6
CONTINUOUS
 10
198.460262
 20
169.733113
 11
178.460262
 21
169.133113
  0
LINE
  8
1
 62
7
  6
CONTINUOUS
 10
178.460262
 20
167.233113
 11
198.460262
 21
167.833113
  0
LINE
  8
1
 62
7
  6
CONTINUOUS
 10
198.460262
 20
166.633113
 11
178.460262
 21
167.233113
  0
LINE
  8
1
 62
7
  6
CONTINUOUS
 10
178.460262
 20
165.333113
 11
198.460262
 21
164.733113
  0
ARC
  8
1
 62
7
  6
CONTINUOUS
 10
89.225156
 20
85.693140
 40
2.000000
 50
-90.000000
 51
-54.900393
  0
ARC
  8
1
 62
7
  6
CONTINUOUS
 10
73.525155
 20
85.693140
 40
2.000000
 50
-125.099607
 51
-90.000000
  0
ARC
  8
1
 62
7
  6
CONTINUOUS
 10
153.575156
 20
111.993138
 40
0.500000
 50
90.000000
 51
180.000000
  0
LINE
  8
1
 62
7
  6
CONTINUOUS
 10
70.718341
 20
112.493140
 11
75.475156
 21
112.493140
  0
LINE
  8
1
 62
7
  6
CONTINUOUS
 10
87.275156
 20
112.493140
 11
92.118341
 21
112.493140
  0
LINE
  8
1
 62
7
  6
CONTINUOUS
 10
155.160608
 20
112.493138
 11
155.160608
 21
102.793140
  0
LINE
  8
1
 62
7
  6
CONTINUOUS
 10
153.575156
 20
112.493138
 11
156.660608
 21
112.493138
  0
LINE
  8
1
 62
7
  6
CONTINUOUS
 10
163.960608
 20
118.284966
 11
163.960296
 21
134.984966
  0
LINE
  8
1
 62
7
  6
CONTINUOUS
 10
166.860607
 20
118.284966
 11
163.960608
 21
118.284966
  0
LINE
  8
1
 62
7
  6
CONTINUOUS
 10
157.160608
 20
135.493140
 11
163.541111
 21
135.493140
  0
LINE
  8
1
 62
7
  6
CONTINUOUS
 10
152.275156
 20
115.493138
 11
153.375156
 21
115.493138
  0
LINE
  8
1
 62
7
  6
CONTINUOUS
 10
153.375156
 20
115.493138
 11
153.375156
 21
117.493138
  0
LINE
  8
1
 62
7
  6
CONTINUOUS
 10
152.075156
 20
117.493138
 11
152.075156
 21
113.993138
  0
LINE
  8
1
 62
7
  6
CONTINUOUS
 10
152.075156
 20
113.993138
 11
153.575156
 21
113.993138
  0
LINE
  8
1
 62
7
  6
CONTINUOUS
 10
153.575156
 20
113.993138
 11
153.575156
 21
117.493138
  0
LINE
  8
1
 62
7
  6
CONTINUOUS
 10
151.075156
 20
112.993138
 11
154.525156
 21
112.993138
  0
LINE
  8
1
 62
7
  6
CONTINUOUS
 10
154.525156
 20
112.693138
 11
151.075156
 21
112.693138
  0
LINE
  8
1
 62
7
  6
CONTINUOUS
 10
154.525156
 20
117.493138
 11
154.525156
 21
112.693138
  0
LINE
  8
1
 62
7
  6
CONTINUOUS
 10
152.275156
 20
117.493138
 11
152.275156
 21
115.493138
  0
ARC
  8
1
 62
7
  6
CONTINUOUS
 10
159.699545
 20
159.241882
 40
5.956806
 50
90.000000
 51
176.672596
  0
ARC
  8
1
 62
7
  6
CONTINUOUS
 10
159.435081
 20
159.531830
 40
7.582613
 50
90.000000
 51
-179.479144
  0
ARC
  8
1
 62
7
  6
CONTINUOUS
 10
161.900454
 20
159.219650
 40
10.161284
 50
103.435332
 51
172.566685
  0
LINE
  8
1
 62
7
  6
CONTINUOUS
 10
151.852781
 20
117.493138
 11
151.852781
 21
160.734892
  0
LINE
  8
1
 62
7
  6
CONTINUOUS
 10
153.752781
 20
117.493138
 11
153.752781
 21
159.587624
  0
LINE
  8
1
 62
7
  6
CONTINUOUS
 10
159.539503
 20
169.102848
 11
164.135233
 21
169.102848
  0
LINE
  8
1
 62
7
  6
CONTINUOUS
 10
159.435081
 20
167.114443
 11
164.135233
 21
167.114443
  0
LINE
  8
1
 62
7
  6
CONTINUOUS
 10
159.699545
 20
165.198689
 11
164.135233
 21
165.198689
  0
LINE
  8
1
 62
7
  6
CONTINUOUS
 10
164.407136
 20
165.803803
 11
164.135233
 21
165.198689
  0
ARC
  8
1
 62
7
  6
CONTINUOUS
 10
163.494989
 20
166.213668
 40
1.000000
 50
-24.196343
 51
31.578165
  0
LINE
  8
1
 62
7
  6
CONTINUOUS
 10
163.786045
 20
167.649791
 11
164.346916
 21
166.737330
  0
LINE
  8
1
 62
7
  6
CONTINUOUS
 10
164.135233
 20
169.102848
 11
163.903555
 21
168.852151
  0
ARC
  8
1
 62
7
  6
CONTINUOUS
 10
164.637972
 20
168.173452
 40
1.000000
 50
137.257945
 51
-148.421835
  0
LINE
  8
1
 62
7
  6
CONTINUOUS
 10
166.092652
 20
169.221518
 11
178.460262
 21
169.221518
  0
LINE
  8
1
 62
7
  6
CONTINUOUS
 10
166.092652
 20
167.233113
 11
178.460262
 21
167.233113
  0
LINE
  8
1
 62
7
  6
CONTINUOUS
 10
166.092652
 20
165.317359
 11
178.460262
 21
165.317359
  0
LINE
  8
1
 62
7
  6
CONTINUOUS
 10
166.364555
 20
165.922474
 11
166.092652
 21
165.317359
  0
ARC
  8
1
 62
7
  6
CONTINUOUS
 10
165.452409
 20
166.332339
 40
1.000000
 50
-24.196343
 51
31.578165
  0
LINE
  8
1
 62
7
  6
CONTINUOUS
 10
165.743465
 20
167.768461
 11
166.304336
 21
166.856000
  0
LINE
  8
1
 62
7
  6
CONTINUOUS
 10
166.092652
 20
169.221518
 11
165.860975
 21
168.970821
  0
ARC
  8
1
 62
7
  6
CONTINUOUS
 10
166.595392
 20
168.292122
 40
1.000000
 50
137.257945
 51
-148.421835
  0
LINE
  8
1
 62
7
  6
CONTINUOUS
 10
75.975156
 20
117.493138
 11
77.675156
 21
117.493138
  0
LINE
  8
1
 62
7
  6
CONTINUOUS
 10
85.075156
 20
117.493138
 11
86.775156
 21
117.493138
  0
CIRCLE
  8
1
 62
7
  6
CONTINUOUS
 10
81.375156
 20
182.661859
 40
13.300000
  0
LINE
  8
1
 62
7
  6
CONTINUOUS
 10
73.337743
 20
190.461859
 11
89.412568
 21
190.461859
  0
LINE
  8
1
 62
7
  6
CONTINUOUS
 10
73.772525
 20
189.461859
 11
88.977787
 21
189.461859
  0
CIRCLE
  8
1
 62
7
  6
CONTINUOUS
 10
81.375156
 20
182.661859
 40
11.200000
  0
LINE
  8
1
 62
7
  6
CONTINUOUS
 10
86.098670
 20
186.128252
 11
87.232007
 21
186.128252
  0
ARC
  8
1
 62
7
  6
CONTINUOUS
 10
87.232007
 20
186.290820
 40
0.162569
 50
-89.988330
 51
-43.807932
  0
LINE
  8
1
 62
7
  6
CONTINUOUS
 10
87.348128
 20
186.174700
 11
87.515342
 21
186.458035
  0
ARC
  8
1
 62
7
  6
CONTINUOUS
 10
87.375997
 20
186.541641
 40
0.162569
 50
-30.973677
 51
29.530666
  0
LINE
  8
1
 62
7
  6
CONTINUOUS
 10
87.515342
 20
186.625248
 11
87.055504
 21
187.414868
  0
LINE
  8
1
 62
7
  6
CONTINUOUS
 10
87.055504
 20
187.414868
 11
87.185559
 21
187.637820
  0
LINE
  8
1
 62
7
  6
CONTINUOUS
 10
87.185559
 20
187.637820
 11
88.188841
 21
187.637820
  0
LINE
  8
1
 62
7
  6
CONTINUOUS
 10
88.188841
 20
187.637820
 11
88.300317
 21
187.828258
  0
LINE
  8
1
 62
7
  6
CONTINUOUS
 10
88.300317
 20
187.828258
 11
87.171624
 21
187.828258
  0
ARC
  8
1
 62
7
  6
CONTINUOUS
 10
87.171624
 20
187.665689
 40
0.162569
 50
89.977713
 51
136.158111
  0
LINE
  8
1
 62
7
  6
CONTINUOUS
 10
87.055504
 20
187.772520
 11
86.888290
 21
187.493830
  0
ARC
  8
1
 62
7
  6
CONTINUOUS
 10
87.027635
 20
187.410223
 40
0.162569
 50
149.049662
 51
-150.445995
  0
LINE
  8
1
 62
7
  6
CONTINUOUS
 10
86.888290
 20
187.335906
 11
87.348128
 21
186.541641
  0
LINE
  8
1
 62
7
  6
CONTINUOUS
 10
87.348128
 20
186.541641
 11
87.213428
 21
186.314045
  0
LINE
  8
1
 62
7
  6
CONTINUOUS
 10
87.213428
 20
186.314045
 11
86.210146
 21
186.314045
  0
LINE
  8
1
 62
7
  6
CONTINUOUS
 10
86.210146
 20
186.314045
 11
86.098670
 21
186.128252
  0
LINE
  8
1
 62
7
  6
CONTINUOUS
 10
85.643477
 20
186.174700
 11
86.595667
 21
187.828258
  0
LINE
  8
1
 62
7
  6
CONTINUOUS
 10
86.595667
 20
187.828258
 11
86.386649
 21
187.828258
  0
LINE
  8
1
 62
7
  6
CONTINUOUS
 10
86.386649
 20
187.828258
 11
85.513422
 21
186.314045
  0
LINE
  8
1
 62
7
  6
CONTINUOUS
 10
85.513422
 20
186.314045
 11
85.202218
 21
186.314045
  0
LINE
  8
1
 62
7
  6
CONTINUOUS
 10
85.202218
 20
186.314045
 11
85.202218
 21
187.637820
  0
LINE
  8
1
 62
7
  6
CONTINUOUS
 10
85.202218
 20
187.637820
 11
85.606318
 21
187.637820
  0
LINE
  8
1
 62
7
  6
CONTINUOUS
 10
85.606318
 20
187.637820
 11
85.606318
 21
187.828258
  0
LINE
  8
1
 62
7
  6
CONTINUOUS
 10
85.606318
 20
187.828258
 11
85.174350
 21
187.828258
  0
ARC
  8
1
 62
7
  6
CONTINUOUS
 10
85.174350
 20
187.665689
 40
0.162569
 50
89.977713
 51
166.754058
  0
LINE
  8
1
 62
7
  6
CONTINUOUS
 10
85.021071
 20
187.702847
 11
85.021071
 21
186.327979
  0
ARC
  8
1
 62
7
  6
CONTINUOUS
 10
85.174350
 20
186.290820
 40
0.162569
 50
166.754058
 51
-89.998948
  0
LINE
  8
1
 62
7
  6
CONTINUOUS
 10
85.174350
 20
186.128252
 11
85.522712
 21
186.128252
  0
ARC
  8
1
 62
7
  6
CONTINUOUS
 10
85.522712
 20
186.290820
 40
0.162569
 50
-89.988330
 51
-42.719312
  0
LINE
  8
1
 62
7
  6
CONTINUOUS
 10
83.237458
 20
186.128252
 11
84.472981
 21
186.128252
  0
ARC
  8
1
 62
7
  6
CONTINUOUS
 10
84.472981
 20
186.290820
 40
0.162569
 50
-89.988330
 51
0.023339
  0
LINE
  8
1
 62
7
  6
CONTINUOUS
 10
84.630905
 20
186.290820
 11
84.630905
 21
187.665689
  0
ARC
  8
1
 62
7
  6
CONTINUOUS
 10
84.472981
 20
187.665689
 40
0.162569
 50
0.023339
 51
89.977713
  0
LINE
  8
1
 62
7
  6
CONTINUOUS
 10
84.472981
 20
187.828258
 11
83.451120
 21
187.828258
  0
ARC
  8
1
 62
7
  6
CONTINUOUS
 10
83.451120
 20
187.665689
 40
0.162569
 50
89.977713
 51
176.723523
  0
LINE
  8
1
 62
7
  6
CONTINUOUS
 10
83.293196
 20
187.674979
 11
83.390737
 21
187.103665
  0
ARC
  8
1
 62
7
  6
CONTINUOUS
 10
83.553306
 20
187.094375
 40
0.162569
 50
176.723523
 51
-104.838555
  0
LINE
  8
1
 62
7
  6
CONTINUOUS
 10
83.511503
 20
186.936451
 11
83.757678
 21
186.936451
  0
LINE
  8
1
 62
7
  6
CONTINUOUS
 10
83.757678
 20
186.936451
 11
83.757678
 21
187.122244
  0
LINE
  8
1
 62
7
  6
CONTINUOUS
 10
83.757678
 20
187.122244
 11
83.571885
 21
187.122244
  0
LINE
  8
1
 62
7
  6
CONTINUOUS
 10
83.571885
 20
187.122244
 11
83.474344
 21
187.637820
  0
LINE
  8
1
 62
7
  6
CONTINUOUS
 10
83.474344
 20
187.637820
 11
84.449757
 21
187.637820
  0
LINE
  8
1
 62
7
  6
CONTINUOUS
 10
84.449757
 20
187.637820
 11
84.449757
 21
186.314045
  0
LINE
  8
1
 62
7
  6
CONTINUOUS
 10
84.449757
 20
186.314045
 11
83.237458
 21
186.314045
  0
LINE
  8
1
 62
7
  6
CONTINUOUS
 10
83.237458
 20
186.314045
 11
83.237458
 21
186.128252
  0
LINE
  8
1
 62
7
  6
CONTINUOUS
 10
82.851937
 20
186.128252
 11
82.851937
 21
187.828258
  0
LINE
  8
1
 62
7
  6
CONTINUOUS
 10
82.851937
 20
187.828258
 11
82.666145
 21
187.828258
  0
LINE
  8
1
 62
7
  6
CONTINUOUS
 10
82.666145
 20
187.828258
 11
82.666145
 21
186.128252
  0
LINE
  8
1
 62
7
  6
CONTINUOUS
 10
82.666145
 20
186.128252
 11
82.851937
 21
186.128252
  0
LINE
  8
1
 62
7
  6
CONTINUOUS
 10
82.197017
 20
186.834265
 11
82.317783
 21
186.834265
  0
LINE
  8
1
 62
7
  6
CONTINUOUS
 10
82.317783
 20
186.834265
 11
82.317783
 21
187.828258
  0
LINE
  8
1
 62
7
  6
CONTINUOUS
 10
82.317783
 20
187.828258
 11
82.197017
 21
187.828258
  0
LINE
  8
1
 62
7
  6
CONTINUOUS
 10
82.197017
 20
187.828258
 11
82.197017
 21
186.955031
  0
LINE
  8
1
 62
7
  6
CONTINUOUS
 10
82.197017
 20
186.955031
 11
81.644283
 21
186.955031
  0
LINE
  8
1
 62
7
  6
CONTINUOUS
 10
81.644283
 20
186.955031
 11
81.644283
 21
187.828258
  0
LINE
  8
1
 62
7
  6
CONTINUOUS
 10
81.644283
 20
187.828258
 11
81.528162
 21
187.828258
  0
LINE
  8
1
 62
7
  6
CONTINUOUS
 10
81.528162
 20
187.828258
 11
81.528162
 21
186.927162
  0
ARC
  8
1
 62
7
  6
CONTINUOUS
 10
81.621059
 20
186.927162
 40
0.092896
 50
180.000000
 51
-89.988330
  0
LINE
  8
1
 62
7
  6
CONTINUOUS
 10
81.621059
 20
186.834265
 11
81.890459
 21
186.834265
  0
LINE
  8
1
 62
7
  6
CONTINUOUS
 10
82.197017
 20
186.834265
 11
82.197017
 21
186.955031
  0
LINE
  8
1
 62
7
  6
CONTINUOUS
 10
81.890459
 20
186.834265
 11
82.020514
 21
186.955031
  0
ARC
  8
1
 62
7
  6
CONTINUOUS
 10
81.082259
 20
186.927162
 40
0.092896
 50
-89.988330
 51
0.023339
  0
LINE
  8
1
 62
7
  6
CONTINUOUS
 10
81.175156
 20
186.927162
 11
81.175156
 21
187.735361
  0
ARC
  8
1
 62
7
  6
CONTINUOUS
 10
81.082259
 20
187.735361
 40
0.092896
 50
0.023339
 51
89.977713
  0
LINE
  8
1
 62
7
  6
CONTINUOUS
 10
81.082259
 20
187.828258
 11
80.478432
 21
187.828258
  0
ARC
  8
1
 62
7
  6
CONTINUOUS
 10
80.478432
 20
187.735361
 40
0.092896
 50
89.977713
 51
179.989383
  0
LINE
  8
1
 62
7
  6
CONTINUOUS
 10
80.385535
 20
187.735361
 11
80.385535
 21
186.927162
  0
ARC
  8
1
 62
7
  6
CONTINUOUS
 10
80.478432
 20
186.927162
 40
0.092896
 50
180.000000
 51
-89.988330
  0
LINE
  8
1
 62
7
  6
CONTINUOUS
 10
80.478432
 20
186.834265
 11
81.082259
 21
186.834265
  0
LINE
  8
1
 62
7
  6
CONTINUOUS
 10
81.059035
 20
186.955031
 11
81.059035
 21
187.707492
  0
LINE
  8
1
 62
7
  6
CONTINUOUS
 10
81.059035
 20
187.707492
 11
80.506301
 21
187.707492
  0
LINE
  8
1
 62
7
  6
CONTINUOUS
 10
80.506301
 20
187.707492
 11
80.506301
 21
186.955031
  0
LINE
  8
1
 62
7
  6
CONTINUOUS
 10
80.506301
 20
186.955031
 11
81.059035
 21
186.955031
  0
ARC
  8
1
 62
7
  6
CONTINUOUS
 10
79.461215
 20
186.290820
 40
0.162569
 50
-169.973239
 51
-89.988330
  0
LINE
  8
1
 62
7
  6
CONTINUOUS
 10
79.461215
 20
186.128252
 11
79.837446
 21
186.128252
  0
ARC
  8
1
 62
7
  6
CONTINUOUS
 10
79.837446
 20
186.290820
 40
0.162569
 50
-89.988330
 51
0.023339
  0
LINE
  8
1
 62
7
  6
CONTINUOUS
 10
80.000015
 20
186.290820
 11
80.000015
 21
187.828258
  0
LINE
  8
1
 62
7
  6
CONTINUOUS
 10
80.000015
 20
187.828258
 11
79.814222
 21
187.828258
  0
LINE
  8
1
 62
7
  6
CONTINUOUS
 10
79.814222
 20
187.828258
 11
79.814222
 21
186.314045
  0
LINE
  8
1
 62
7
  6
CONTINUOUS
 10
79.814222
 20
186.314045
 11
79.479795
 21
186.314045
  0
LINE
  8
1
 62
7
  6
CONTINUOUS
 10
79.479795
 20
186.314045
 11
79.228974
 21
187.730716
  0
ARC
  8
1
 62
7
  6
CONTINUOUS
 10
79.080339
 20
187.665689
 40
0.162569
 50
23.629200
 51
89.977713
  0
LINE
  8
1
 62
7
  6
CONTINUOUS
 10
79.080339
 20
187.828258
 11
78.922415
 21
187.828258
  0
ARC
  8
1
 62
7
  6
CONTINUOUS
 10
78.922415
 20
187.665689
 40
0.162569
 50
89.977713
 51
170.019917
  0
LINE
  8
1
 62
7
  6
CONTINUOUS
 10
78.764492
 20
187.688912
 11
78.522961
 21
186.314045
  0
LINE
  8
1
 62
7
  6
CONTINUOUS
 10
78.522961
 20
186.314045
 11
78.188533
 21
186.314045
  0
LINE
  8
1
 62
7
  6
CONTINUOUS
 10
78.188533
 20
186.314045
 11
78.188533
 21
187.828258
  0
LINE
  8
1
 62
7
  6
CONTINUOUS
 10
78.188533
 20
187.828258
 11
77.998096
 21
187.828258
  0
LINE
  8
1
 62
7
  6
CONTINUOUS
 10
77.998096
 20
187.828258
 11
77.998096
 21
186.290820
  0
ARC
  8
1
 62
7
  6
CONTINUOUS
 10
78.160664
 20
186.290820
 40
0.162569
 50
180.000000
 51
-89.988330
  0
LINE
  8
1
 62
7
  6
CONTINUOUS
 10
78.160664
 20
186.128252
 11
78.541540
 21
186.128252
  0
ARC
  8
1
 62
7
  6
CONTINUOUS
 10
78.541540
 20
186.290820
 40
0.162569
 50
-89.988330
 51
-10.003422
  0
LINE
  8
1
 62
7
  6
CONTINUOUS
 10
77.431427
 20
186.128252
 11
77.617220
 21
186.128252
  0
LINE
  8
1
 62
7
  6
CONTINUOUS
 10
77.617220
 20
186.128252
 11
77.617220
 21
187.828258
  0
LINE
  8
1
 62
7
  6
CONTINUOUS
 10
77.617220
 20
187.828258
 11
77.431427
 21
187.828258
  0
LINE
  8
1
 62
7
  6
CONTINUOUS
 10
77.431427
 20
187.828258
 11
77.431427
 21
186.128252
  0
LINE
  8
1
 62
7
  6
CONTINUOUS
 10
76.706834
 20
186.128252
 11
76.943720
 21
186.128252
  0
LINE
  8
1
 62
7
  6
CONTINUOUS
 10
76.943720
 20
186.128252
 11
76.209837
 21
187.061861
  0
LINE
  8
1
 62
7
  6
CONTINUOUS
 10
76.209837
 20
187.061861
 11
76.548910
 21
187.637820
  0
LINE
  8
1
 62
7
  6
CONTINUOUS
 10
76.548910
 20
187.637820
 11
77.045906
 21
187.637820
  0
LINE
  8
1
 62
7
  6
CONTINUOUS
 10
77.045906
 20
187.637820
 11
77.045906
 21
187.828258
  0
LINE
  8
1
 62
7
  6
CONTINUOUS
 10
77.045906
 20
187.828258
 11
76.446724
 21
187.828258
  0
LINE
  8
1
 62
7
  6
CONTINUOUS
 10
76.446724
 20
187.828258
 11
75.466666
 21
186.128252
  0
LINE
  8
1
 62
7
  6
CONTINUOUS
 10
75.466666
 20
186.128252
 11
75.680328
 21
186.128252
  0
LINE
  8
1
 62
7
  6
CONTINUOUS
 10
75.680328
 20
186.128252
 11
76.116941
 21
186.885358
  0
LINE
  8
1
 62
7
  6
CONTINUOUS
 10
76.116941
 20
186.885358
 11
76.706834
 21
186.128252
  0
LINE
  8
1
 62
7
  6
CONTINUOUS
 10
74.542346
 20
186.128252
 11
74.890708
 21
186.128252
  0
ARC
  8
1
 62
7
  6
CONTINUOUS
 10
74.890708
 20
186.290820
 40
0.162569
 50
-89.988330
 51
-42.719312
  0
LINE
  8
1
 62
7
  6
CONTINUOUS
 10
75.006828
 20
186.174700
 11
75.963662
 21
187.828258
  0
LINE
  8
1
 62
7
  6
CONTINUOUS
 10
75.963662
 20
187.828258
 11
75.750000
 21
187.828258
  0
LINE
  8
1
 62
7
  6
CONTINUOUS
 10
75.750000
 20
187.828258
 11
74.876773
 21
186.314045
  0
LINE
  8
1
 62
7
  6
CONTINUOUS
 10
74.876773
 20
186.314045
 11
74.570214
 21
186.314045
  0
LINE
  8
1
 62
7
  6
CONTINUOUS
 10
74.570214
 20
186.314045
 11
74.570214
 21
187.637820
  0
LINE
  8
1
 62
7
  6
CONTINUOUS
 10
74.570214
 20
187.637820
 11
74.974314
 21
187.637820
  0
LINE
  8
1
 62
7
  6
CONTINUOUS
 10
74.974314
 20
187.637820
 11
74.974314
 21
187.828258
  0
LINE
  8
1
 62
7
  6
CONTINUOUS
 10
74.974314
 20
187.828258
 11
74.542346
 21
187.828258
  0
ARC
  8
1
 62
7
  6
CONTINUOUS
 10
74.542346
 20
187.665689
 40
0.162569
 50
89.977713
 51
166.754058
  0
LINE
  8
1
 62
7
  6
CONTINUOUS
 10
74.384422
 20
187.702847
 11
74.384422
 21
186.327979
  0
ARC
  8
1
 62
7
  6
CONTINUOUS
 10
74.542346
 20
186.290820
 40
0.162569
 50
166.754058
 51
-89.998948
  0
LINE
  8
1
 62
7
  6
CONTINUOUS
 10
79.112854
 20
187.359130
 11
79.303291
 21
186.262951
  0
LINE
  8
1
 62
7
  6
CONTINUOUS
 10
78.894547
 20
187.349841
 11
78.694819
 21
186.262951
  0
LINE
  8
1
 62
7
  6
CONTINUOUS
 10
79.112854
 20
187.359130
 11
79.001378
 21
187.642464
  0
LINE
  8
1
 62
7
  6
CONTINUOUS
 10
79.001378
 20
187.642464
 11
78.894547
 21
187.349841
  0
LINE
  8
1
 62
7
  6
CONTINUOUS
 10
86.285981
 20
179.361864
 11
87.285981
 21
179.361864
  0
LINE
  8
1
 62
7
  6
CONTINUOUS
 10
86.285981
 20
177.361864
 11
87.285981
 21
177.361864
  0
LINE
  8
1
 62
7
  6
CONTINUOUS
 10
75.485981
 20
179.361864
 11
76.485981
 21
179.361864
  0
LINE
  8
1
 62
7
  6
CONTINUOUS
 10
75.485981
 20
177.361864
 11
76.485981
 21
177.361864
  0
LINE
  8
1
 62
7
  6
CONTINUOUS
 10
76.485981
 20
176.361864
 11
77.185981
 21
176.361864
  0
LINE
  8
1
 62
7
  6
CONTINUOUS
 10
86.285981
 20
176.361864
 11
85.585981
 21
176.361864
  0
LINE
  8
1
 62
7
  6
CONTINUOUS
 10
82.135981
 20
177.361864
 11
80.635981
 21
177.361864
  0
LINE
  8
1
 62
7
  6
CONTINUOUS
 10
79.635981
 20
177.361864
 11
78.135981
 21
177.361864
  0
LINE
  8
1
 62
7
  6
CONTINUOUS
 10
84.635981
 20
177.361864
 11
83.135981
 21
177.361864
  0
LINE
  8
1
 62
7
  6
CONTINUOUS
 10
76.485981
 20
179.361864
 11
77.185981
 21
179.361864
  0
LINE
  8
1
 62
7
  6
CONTINUOUS
 10
76.485981
 20
181.061864
 11
86.285981
 21
181.061864
  0
LINE
  8
1
 62
7
  6
CONTINUOUS
 10
77.185981
 20
179.361864
 11
77.185981
 21
181.061864
  0
LINE
  8
1
 62
7
  6
CONTINUOUS
 10
86.285981
 20
179.361864
 11
85.585981
 21
179.361864
  0
LINE
  8
1
 62
7
  6
CONTINUOUS
 10
85.585981
 20
179.361864
 11
85.585981
 21
181.061864
  0
LINE
  8
1
 62
7
  6
CONTINUOUS
 10
85.585981
 20
176.361864
 11
85.585981
 21
175.661864
  0
LINE
  8
1
 62
7
  6
CONTINUOUS
 10
84.635981
 20
175.661864
 11
84.635981
 21
177.361864
  0
LINE
  8
1
 62
7
  6
CONTINUOUS
 10
83.135981
 20
177.361864
 11
83.135981
 21
175.661864
  0
LINE
  8
1
 62
7
  6
CONTINUOUS
 10
82.135981
 20
175.661864
 11
82.135981
 21
177.361864
  0
LINE
  8
1
 62
7
  6
CONTINUOUS
 10
80.635981
 20
177.361864
 11
80.635981
 21
175.661864
  0
LINE
  8
1
 62
7
  6
CONTINUOUS
 10
79.635981
 20
175.661864
 11
79.635981
 21
177.361864
  0
LINE
  8
1
 62
7
  6
CONTINUOUS
 10
78.135981
 20
177.361864
 11
78.135981
 21
175.661864
  0
LINE
  8
1
 62
7
  6
CONTINUOUS
 10
77.185981
 20
176.361864
 11
77.185981
 21
175.661864
  0
ARC
  8
1
 62
7
  6
CONTINUOUS
 10
85.785981
 20
182.161864
 40
1.500000
 50
0.000000
 51
90.000000
  0
LINE
  8
1
 62
7
  6
CONTINUOUS
 10
76.985981
 20
183.661864
 11
85.785981
 21
183.661864
  0
ARC
  8
1
 62
7
  6
CONTINUOUS
 10
76.985981
 20
182.161864
 40
1.500000
 50
90.000000
 51
180.000000
  0
ARC
  8
1
 62
7
  6
CONTINUOUS
 10
85.785981
 20
174.761864
 40
0.500000
 50
-90.000000
 51
0.000000
  0
LINE
  8
1
 62
7
  6
CONTINUOUS
 10
76.985981
 20
174.261864
 11
85.785981
 21
174.261864
  0
ARC
  8
1
 62
7
  6
CONTINUOUS
 10
76.985981
 20
174.761864
 40
0.500000
 50
180.000000
 51
-90.000000
  0
LINE
  8
1
 62
7
  6
CONTINUOUS
 10
86.285981
 20
180.861864
 11
86.285981
 21
174.761864
  0
ARC
  8
1
 62
7
  6
CONTINUOUS
 10
85.785981
 20
180.861864
 40
0.500000
 50
0.000000
 51
90.000000
  0
LINE
  8
1
 62
7
  6
CONTINUOUS
 10
76.985981
 20
181.361864
 11
85.785981
 21
181.361864
  0
LINE
  8
1
 62
7
  6
CONTINUOUS
 10
76.485981
 20
180.861864
 11
76.485981
 21
174.761864
  0
ARC
  8
1
 62
7
  6
CONTINUOUS
 10
76.985981
 20
180.861864
 40
0.500000
 50
90.000000
 51
180.000000
  0
ARC
  8
1
 62
7
  6
CONTINUOUS
 10
85.785981
 20
176.161864
 40
0.500000
 50
-90.000000
 51
0.000000
  0
LINE
  8
1
 62
7
  6
CONTINUOUS
 10
76.985981
 20
175.661864
 11
85.785981
 21
175.661864
  0
ARC
  8
1
 62
7
  6
CONTINUOUS
 10
76.985981
 20
176.161864
 40
0.500000
 50
180.000000
 51
-90.000000
  0
LINE
  8
1
 62
7
  6
CONTINUOUS
 10
85.860920
 20
183.661864
 11
85.860920
 21
183.659990
  0
LINE
  8
1
 62
7
  6
CONTINUOUS
 10
79.535981
 20
179.061864
 11
78.235981
 21
179.061864
  0
LINE
  8
1
 62
7
  6
CONTINUOUS
 10
78.235981
 20
179.061864
 11
78.235981
 21
178.661864
  0
LINE
  8
1
 62
7
  6
CONTINUOUS
 10
78.235981
 20
178.661864
 11
79.535981
 21
178.661864
  0
LINE
  8
1
 62
7
  6
CONTINUOUS
 10
79.535981
 20
178.661864
 11
79.535981
 21
179.061864
  0
LINE
  8
1
 62
7
  6
CONTINUOUS
 10
84.535981
 20
179.061864
 11
83.235981
 21
179.061864
  0
LINE
  8
1
 62
7
  6
CONTINUOUS
 10
83.235981
 20
179.061864
 11
83.235981
 21
178.661864
  0
LINE
  8
1
 62
7
  6
CONTINUOUS
 10
83.235981
 20
178.661864
 11
84.535981
 21
178.661864
  0
LINE
  8
1
 62
7
  6
CONTINUOUS
 10
84.535981
 20
178.661864
 11
84.535981
 21
179.061864
  0
LINE
  8
1
 62
7
  6
CONTINUOUS
 10
85.085981
 20
175.661864
 11
85.085981
 21
174.261864
  0
LINE
  8
1
 62
7
  6
CONTINUOUS
 10
77.685981
 20
175.661864
 11
77.685981
 21
174.261864
  0
LINE
  8
1
 62
7
  6
CONTINUOUS
 10
83.987458
 20
184.128252
 11
84.737458
 21
184.628252
  0
LINE
  8
1
 62
7
  6
CONTINUOUS
 10
84.737458
 20
184.628252
 11
84.487458
 21
184.628252
  0
LINE
  8
1
 62
7
  6
CONTINUOUS
 10
84.487458
 20
184.628252
 11
84.487458
 21
185.628252
  0
LINE
  8
1
 62
7
  6
CONTINUOUS
 10
84.487458
 20
185.628252
 11
83.487458
 21
185.628252
  0
LINE
  8
1
 62
7
  6
CONTINUOUS
 10
83.487458
 20
185.628252
 11
83.487458
 21
184.628252
  0
LINE
  8
1
 62
7
  6
CONTINUOUS
 10
83.487458
 20
184.628252
 11
83.237458
 21
184.628252
  0
LINE
  8
1
 62
7
  6
CONTINUOUS
 10
83.237458
 20
184.628252
 11
83.987458
 21
184.128252
  0
LINE
  8
1
 62
7
  6
CONTINUOUS
 10
83.912458
 20
184.178252
 11
84.062458
 21
184.178252
  0
LINE
  8
1
 62
7
  6
CONTINUOUS
 10
83.762458
 20
184.278252
 11
84.212458
 21
184.278252
  0
LINE
  8
1
 62
7
  6
CONTINUOUS
 10
83.612458
 20
184.378252
 11
84.362458
 21
184.378252
  0
LINE
  8
1
 62
7
  6
CONTINUOUS
 10
83.462458
 20
184.478252
 11
84.512458
 21
184.478252
  0
LINE
  8
1
 62
7
  6
CONTINUOUS
 10
83.312458
 20
184.578252
 11
84.662458
 21
184.578252
  0
LINE
  8
1
 62
7
  6
CONTINUOUS
 10
83.487458
 20
184.678252
 11
84.487458
 21
184.678252
  0
LINE
  8
1
 62
7
  6
CONTINUOUS
 10
83.487458
 20
184.778252
 11
84.487458
 21
184.778252
  0
LINE
  8
1
 62
7
  6
CONTINUOUS
 10
83.487458
 20
184.878252
 11
84.487458
 21
184.878252
  0
LINE
  8
1
 62
7
  6
CONTINUOUS
 10
83.487458
 20
184.978252
 11
84.487458
 21
184.978252
  0
LINE
  8
1
 62
7
  6
CONTINUOUS
 10
83.487458
 20
185.078252
 11
84.487458
 21
185.078252
  0
LINE
  8
1
 62
7
  6
CONTINUOUS
 10
83.487458
 20
185.178252
 11
84.487458
 21
185.178252
  0
LINE
  8
1
 62
7
  6
CONTINUOUS
 10
83.487458
 20
185.278252
 11
84.487458
 21
185.278252
  0
LINE
  8
1
 62
7
  6
CONTINUOUS
 10
83.487458
 20
185.378252
 11
84.487458
 21
185.378252
  0
LINE
  8
1
 62
7
  6
CONTINUOUS
 10
83.487458
 20
185.478252
 11
84.487458
 21
185.478252
  0
LINE
  8
1
 62
7
  6
CONTINUOUS
 10
83.487458
 20
185.578252
 11
84.487458
 21
185.578252
  0
LINE
  8
1
 62
7
  6
CONTINUOUS
 10
85.785981
 20
173.261864
 11
76.985981
 21
173.261864
  0
ARC
  8
1
 62
7
  6
CONTINUOUS
 10
76.985981
 20
174.761864
 40
1.500000
 50
180.000000
 51
-90.000000
  0
ARC
  8
1
 62
7
  6
CONTINUOUS
 10
85.785981
 20
174.761864
 40
1.500000
 50
-90.000000
 51
0.000000
  0
ARC
  8
1
 62
7
  6
CONTINUOUS
 10
88.285981
 20
181.161864
 40
1.000000
 50
90.000000
 51
180.000000
  0
LINE
  8
1
 62
7
  6
CONTINUOUS
 10
88.285981
 20
182.161864
 11
91.464258
 21
182.161864
  0
ARC
  8
1
 62
7
  6
CONTINUOUS
 10
91.464258
 20
183.161864
 40
1.000000
 50
-90.000000
 51
8.456544
  0
LINE
  8
1
 62
7
  6
CONTINUOUS
 10
74.485981
 20
182.161864
 11
71.187418
 21
182.161864
  0
ARC
  8
1
 62
7
  6
CONTINUOUS
 10
88.285981
 20
182.661864
 40
1.000000
 50
90.000000
 51
180.000000
  0
ARC
  8
1
 62
7
  6
CONTINUOUS
 10
74.485981
 20
182.661864
 40
1.000000
 50
0.000000
 51
90.000000
  0
ARC
  8
1
 62
7
  6
CONTINUOUS
 10
86.360920
 20
184.161864
 40
0.500000
 50
90.000000
 51
180.000000
  0
ARC
  8
1
 62
7
  6
CONTINUOUS
 10
76.411042
 20
184.161864
 40
0.500000
 50
0.000000
 51
90.000000
  0
LINE
  8
1
 62
7
  6
CONTINUOUS
 10
88.285981
 20
183.661864
 11
91.464258
 21
183.661864
  0
LINE
  8
1
 62
7
  6
CONTINUOUS
 10
74.485981
 20
183.661864
 11
71.307705
 21
183.661864
  0
LINE
  8
1
 62
7
  6
CONTINUOUS
 10
86.360920
 20
184.661864
 11
90.866730
 21
184.661864
  0
LINE
  8
1
 62
7
  6
CONTINUOUS
 10
76.411042
 20
184.661864
 11
71.883581
 21
184.661864
  0
ARC
  8
1
 62
7
  6
CONTINUOUS
 10
71.883581
 20
185.161864
 40
0.500000
 50
-154.133902
 51
-90.000000
  0
ARC
  8
1
 62
7
  6
CONTINUOUS
 10
81.375156
 20
182.661859
 40
10.200000
 50
138.189685
 51
167.072807
  0
ARC
  8
1
 62
7
  6
CONTINUOUS
 10
71.307705
 20
184.661864
 40
1.000000
 50
-169.633115
 51
-90.000000
  0
ARC
  8
1
 62
7
  6
CONTINUOUS
 10
90.866730
 20
185.161864
 40
0.500000
 50
-90.000000
 51
-25.866098
  0
ARC
  8
1
 62
7
  6
CONTINUOUS
 10
81.375156
 20
182.661859
 40
10.200000
 50
12.927193
 51
41.810315
  0
ARC
  8
1
 62
7
  6
CONTINUOUS
 10
91.464258
 20
184.661864
 40
1.000000
 50
-90.000000
 51
-13.744706
  0
LINE
  8
1
 62
7
  6
CONTINUOUS
 10
87.285981
 20
182.661864
 11
87.285981
 21
174.761864
  0
LINE
  8
1
 62
7
  6
CONTINUOUS
 10
75.485981
 20
174.761864
 11
75.485981
 21
182.661864
  0
ARC
  8
1
 62
7
  6
CONTINUOUS
 10
74.485981
 20
181.161864
 40
1.000000
 50
0.000000
 51
90.000000
  0
ARC
  8
1
 62
7
  6
CONTINUOUS
 10
71.187418
 20
183.161864
 40
1.000000
 50
177.190233
 51
-90.000000
  0
LINE
  8
1
 62
7
  6
CONTINUOUS
 10
85.860920
 20
184.161864
 11
85.860920
 21
183.659990
  0
LINE
  8
1
 62
7
  6
CONTINUOUS
 10
76.911042
 20
184.161864
 11
76.911042
 21
183.659990
  0
ARC
  8
2
 62
7
  6
HIDDEN
 10
164.010609
 20
85.693140
 40
2.000000
 50
-90.000000
 51
0.000000
  0
LINE
  8
2
 62
7
  6
HIDDEN
 10
169.460608
 20
88.993140
 11
169.460608
 21
95.501967
  0
LINE
  8
2
 62
7
  6
HIDDEN
 10
145.503793
 20
97.693140
 11
166.903794
 21
97.693140
  0
LINE
  8
2
 62
7
  6
HIDDEN
 10
166.903794
 20
97.693140
 11
169.405737
 21
95.793140
  0
ARC
  8
2
 62
7
  6
HIDDEN
 10
168.660607
 20
95.501967
 40
0.800001
 50
0.000000
 51
21.343962
  0
LINE
  8
2
 62
7
  6
HIDDEN
 10
164.160608
 20
97.693140
 11
166.160607
 21
97.693140
  0
LINE
  8
2
 62
7
  6
HIDDEN
 10
164.160608
 20
95.793140
 11
169.405738
 21
95.793140
  0
LINE
  8
2
 62
7
  6
HIDDEN
 10
161.810607
 20
88.993140
 11
169.460608
 21
88.993140
  0
LINE
  8
2
 62
7
  6
HIDDEN
 10
166.010608
 20
85.693140
 11
166.010608
 21
88.993140
  0
ARC
  8
2
 62
7
  6
DOT
 10
220.875649
 20
134.493140
 40
0.500000
 50
90.000000
 51
180.000000
  0
LINE
  8
2
 62
7
  6
DOT
 10
220.375649
 20
134.493140
 11
220.375649
 21
120.493140
  0
ARC
  8
2
 62
7
  6
DOT
 10
220.875649
 20
120.493140
 40
0.500000
 50
180.000000
 51
-90.000000
  0
LINE
  8
2
 62
7
  6
DOT
 10
220.875649
 20
119.993140
 11
231.875649
 21
119.993140
  0
ARC
  8
2
 62
7
  6
DOT
 10
231.875649
 20
120.493140
 40
0.500000
 50
-90.000000
 51
0.000000
  0
LINE
  8
2
 62
7
  6
DOT
 10
232.375649
 20
120.493140
 11
232.375649
 21
134.493140
  0
LINE
  8
2
 62
7
  6
DOT
 10
231.875649
 20
134.993140
 11
220.875649
 21
134.993140
  0
ARC
  8
2
 62
7
  6
DOT
 10
231.875649
 20
134.493140
 40
0.500000
 50
0.000000
 51
90.000000
  0
LINE
  8
2
 62
7
  6
HIDDEN
 10
166.903794
 20
105.393140
 11
166.903794
 21
97.693140
  0
LINE
  8
2
 62
7
  6
DASHDOT
 10
151.075156
 20
112.693138
 11
151.075156
 21
117.493138
  0
LINE
  8
2
 62
7
  6
DASHDOT
 10
151.075156
 20
117.493138
 11
151.075156
 21
116.993138
  0
LINE
  8
2
 62
7
  6
CONTINUOUS
 10
86.244156
 20
74.893140
 11
86.931156
 21
76.693140
  0
LINE
  8
2
 62
7
  6
CONTINUOUS
 10
76.506156
 20
74.893140
 11
75.819156
 21
76.693140
  0
LINE
  8
2
 62
7
  6
CONTINUOUS
 10
86.244156
 20
67.162135
 11
86.244156
 21
74.893140
  0
LINE
  8
2
 62
7
  6
CONTINUOUS
 10
76.506156
 20
67.162135
 11
76.506156
 21
74.893140
  0
LINE
  8
2
 62
7
  6
CONTINUOUS
 10
231.244156
 20
74.893140
 11
231.931156
 21
76.693140
  0
LINE
  8
2
 62
7
  6
CONTINUOUS
 10
221.506156
 20
74.893140
 11
220.819156
 21
76.693140
  0
LINE
  8
2
 62
7
  6
CONTINUOUS
 10
231.244156
 20
67.162135
 11
231.244156
 21
74.893140
  0
LINE
  8
2
 62
7
  6
CONTINUOUS
 10
221.506156
 20
67.162135
 11
221.506156
 21
74.893140
  0
LINE
  8
2
 62
7
  6
CONTINUOUS
 10
161.244156
 20
74.893140
 11
161.931156
 21
76.693140
  0
LINE
  8
2
 62
7
  6
CONTINUOUS
 10
151.506156
 20
74.893140
 11
150.819156
 21
76.693140
  0
LINE
  8
2
 62
7
  6
CONTINUOUS
 10
161.244156
 20
67.162135
 11
161.244156
 21
74.893140
  0
LINE
  8
2
 62
7
  6
CONTINUOUS
 10
151.506156
 20
67.162135
 11
151.506156
 21
74.893140
  0
LINE
  8
2
 62
7
  6
DASHDOT
 10
81.375156
 20
59.720368
 11
81.375156
 21
138.182655
  0
LINE
  8
2
 62
7
  6
DASHDOT
 10
156.375156
 20
59.213137
 11
156.375156
 21
137.675423
  0
ARC
  8
2
 62
7
  6
DASHDOT
 10
89.225156
 20
85.693140
 40
2.000000
 50
-55.922816
 51
-54.900393
  0
LINE
  8
2
 62
7
  6
DIVIDE
 10
45.683487
 20
93.393140
 11
118.233005
 21
93.393140
  0
LINE
  8
2
 62
7
  6
DIVIDE
 10
52.375156
 20
91.143140
 11
52.375156
 21
96.769733
  0
LINE
  8
2
 62
7
  6
DIVIDE
 10
110.375156
 20
91.143140
 11
110.375156
 21
97.530410
  0
LINE
  8
2
 62
7
  6
HIDDEN
 10
155.160608
 20
102.793140
 11
155.160608
 21
101.493140
  0
LINE
  8
2
 62
7
  6
HIDDEN
 10
155.160608
 20
101.493140
 11
149.160608
 21
101.493140
  0
LINE
  8
2
 62
7
  6
CONTINUOUS
 10
86.247305
 20
186.221148
 11
87.264521
 21
186.221148
  0
LINE
  8
2
 62
7
  6
CONTINUOUS
 10
87.264521
 20
186.221148
 11
87.445669
 21
186.564865
  0
LINE
  8
2
 62
7
  6
CONTINUOUS
 10
87.445669
 20
186.564865
 11
86.957963
 21
187.410223
  0
LINE
  8
2
 62
7
  6
CONTINUOUS
 10
86.957963
 20
187.410223
 11
87.143755
 21
187.730716
  0
LINE
  8
2
 62
7
  6
CONTINUOUS
 10
87.143755
 20
187.730716
 11
88.160972
 21
187.735361
  0
LINE
  8
2
 62
7
  6
CONTINUOUS
 10
86.465611
 20
187.763230
 11
85.573805
 21
186.225793
  0
LINE
  8
2
 62
7
  6
CONTINUOUS
 10
85.573805
 20
186.225793
 11
85.123257
 21
186.225793
  0
LINE
  8
2
 62
7
  6
CONTINUOUS
 10
85.123257
 20
186.225793
 11
85.127901
 21
187.721427
  0
LINE
  8
2
 62
7
  6
CONTINUOUS
 10
85.127901
 20
187.721427
 11
85.545936
 21
187.712137
  0
LINE
  8
2
 62
7
  6
CONTINUOUS
 10
83.316420
 20
186.216503
 11
84.542654
 21
186.211859
  0
LINE
  8
2
 62
7
  6
CONTINUOUS
 10
84.542654
 20
186.211859
 11
84.538009
 21
187.730716
  0
LINE
  8
2
 62
7
  6
CONTINUOUS
 10
84.538009
 20
187.730716
 11
83.376803
 21
187.726071
  0
LINE
  8
2
 62
7
  6
CONTINUOUS
 10
83.376803
 20
187.726071
 11
83.502213
 21
187.043282
  0
LINE
  8
2
 62
7
  6
CONTINUOUS
 10
83.502213
 20
187.043282
 11
83.688006
 21
187.043282
  0
LINE
  8
2
 62
7
  6
CONTINUOUS
 10
82.759041
 20
186.207213
 11
82.759041
 21
187.758585
  0
LINE
  8
2
 62
7
  6
CONTINUOUS
 10
79.925698
 20
187.772520
 11
79.921053
 21
186.249017
  0
LINE
  8
2
 62
7
  6
CONTINUOUS
 10
79.921053
 20
186.249017
 11
79.396188
 21
186.253662
  0
LINE
  8
2
 62
7
  6
CONTINUOUS
 10
79.396188
 20
186.253662
 11
79.112854
 21
187.716782
  0
LINE
  8
2
 62
7
  6
CONTINUOUS
 10
79.112854
 20
187.716782
 11
78.889902
 21
187.716782
  0
LINE
  8
2
 62
7
  6
CONTINUOUS
 10
78.889902
 20
187.716782
 11
78.583343
 21
186.230438
  0
LINE
  8
2
 62
7
  6
CONTINUOUS
 10
78.583343
 20
186.230438
 11
78.081703
 21
186.225793
  0
LINE
  8
2
 62
7
  6
CONTINUOUS
 10
78.081703
 20
186.225793
 11
78.077057
 21
187.758585
  0
LINE
  8
2
 62
7
  6
CONTINUOUS
 10
77.519679
 20
186.207213
 11
77.524323
 21
187.763230
  0
LINE
  8
2
 62
7
  6
CONTINUOUS
 10
76.781151
 20
186.188634
 11
76.116941
 21
187.015413
  0
LINE
  8
2
 62
7
  6
CONTINUOUS
 10
75.610655
 20
186.202569
 11
76.497817
 21
187.716782
  0
LINE
  8
2
 62
7
  6
CONTINUOUS
 10
76.497817
 20
187.716782
 11
76.976234
 21
187.721427
  0
LINE
  8
2
 62
7
  6
CONTINUOUS
 10
75.824317
 20
187.772520
 11
74.927866
 21
186.225793
  0
LINE
  8
2
 62
7
  6
CONTINUOUS
 10
74.927866
 20
186.225793
 11
74.486608
 21
186.230438
  0
LINE
  8
2
 62
7
  6
CONTINUOUS
 10
74.486608
 20
186.230438
 11
74.481963
 21
187.730716
  0
LINE
  8
2
 62
7
  6
CONTINUOUS
 10
74.481963
 20
187.730716
 11
74.932511
 21
187.740006
  0
LINE
  8
2
 62
7
  6
DASHDOT
 10
226.375156
 20
59.720368
 11
226.375156
 21
138.182655
  0
ARC
  8
2
 62
7
  6
HIDDEN
 10
73.525155
 20
85.693140
 40
2.000000
 50
-155.635350
 51
-124.077184
  0
ARC
  8
2
 62
7
  6
HIDDEN
 10
89.225156
 20
85.693140
 40
2.000000
 50
-55.922816
 51
0.000000
  0
ARC
  8
2
 62
7
  6
HIDDEN
 10
91.725156
 20
88.493140
 40
0.500000
 50
179.999986
 51
180.000000
  0
ARC
  8
2
 62
7
  6
HIDDEN
 10
91.725156
 20
88.493140
 40
0.500000
 50
90.000000
 51
179.999986
  0
LINE
  8
2
 62
7
  6
HIDDEN
 10
91.225156
 20
85.693140
 11
91.225156
 21
88.493140
  0
ARC
  8
2
 62
7
  6
HIDDEN
 10
91.725156
 20
88.493140
 40
0.500000
 50
90.000000
 51
180.000000
  0
LINE
  8
2
 62
7
  6
HIDDEN
 10
91.225156
 20
85.693140
 11
91.225156
 21
88.493140
  0
ARC
  8
2
 62
7
  6
HIDDEN
 10
73.525155
 20
85.693140
 40
2.000000
 50
180.000000
 51
-155.635350
  0
ARC
  8
2
 62
7
  6
HIDDEN
 10
71.025155
 20
88.493140
 40
0.500000
 50
20.323127
 51
90.000000
  0
ARC
  8
2
 62
7
  6
HIDDEN
 10
71.025155
 20
88.493140
 40
0.500000
 50
0.000014
 51
20.323127
  0
ARC
  8
2
 62
7
  6
HIDDEN
 10
71.025155
 20
88.493140
 40
0.500000
 50
0.000000
 51
0.000014
  0
LINE
  8
2
 62
7
  6
HIDDEN
 10
71.525155
 20
88.493140
 11
71.525155
 21
85.693140
  0
ARC
  8
2
 62
7
  6
HIDDEN
 10
71.025155
 20
88.493140
 40
0.500000
 50
0.000000
 51
90.000000
  0
LINE
  8
2
 62
7
  6
HIDDEN
 10
71.525155
 20
88.493140
 11
71.525155
 21
85.693140
  0
LINE
  8
2
 62
7
  6
HIDDEN
 10
92.118341
 20
101.493140
 11
89.375156
 21
101.493140
  0
LINE
  8
2
 62
7
  6
HIDDEN
 10
92.118341
 20
102.793140
 11
92.118341
 21
97.693140
  0
LINE
  8
2
 62
7
  6
HIDDEN
 10
92.118341
 20
102.793140
 11
92.118341
 21
97.693140
  0
LINE
  8
2
 62
7
  6
HIDDEN
 10
70.718341
 20
102.793140
 11
70.718341
 21
97.693140
  0
LINE
  8
2
 62
7
  6
HIDDEN
 10
70.718341
 20
101.493140
 11
73.375156
 21
101.493140
  0
LINE
  8
2
 62
7
  6
HIDDEN
 10
70.718341
 20
102.793140
 11
70.718341
 21
97.693140
  0
LINE
  8
3
 62
7
  6
CONTINUOUS
 10
198.460263
 20
179.098577
 11
149.254943
 21
179.098577
  0
LINE
  8
3
 62
7
  6
CONTINUOUS
 10
198.460263
 20
179.098577
 11
195.960263
 21
179.768450
  0
LINE
  8
3
 62
7
  6
CONTINUOUS
 10
195.960263
 20
178.428704
 11
198.460263
 21
179.098577
  0
LINE
  8
3
 62
7
  6
CONTINUOUS
 10
198.460263
 20
176.349997
 11
198.460263
 21
182.501581
  0
LINE
  8
3
 62
7
  6
CONTINUOUS
 10
144.194062
 20
117.493138
 11
144.194062
 21
175.676371
  0
ARC
  8
3
 62
7
  6
CONTINUOUS
 10
149.254943
 20
173.645368
 40
5.453209
 50
90.000001
 51
159.138308
  0
LINE
  8
3
 62
7
  6
CONTINUOUS
 10
143.523383
 20
119.996149
 11
144.194062
 21
117.493136
  0
LINE
  8
3
 62
7
  6
CONTINUOUS
 10
144.860027
 20
119.978557
 11
144.194062
 21
117.493138
  0
LINE
  8
3
 62
7
  6
CONTINUOUS
 10
140.267520
 20
117.493138
 11
147.858835
 21
117.493138
  0
LINE
  8
3
 62
7
  6
CONTINUOUS
 10
139.755074
 20
117.493138
 11
147.346390
 21
117.493138
  0
LINE
  8
3
 62
7
  6
CONTINUOUS
 10
155.025156
 20
117.493138
 11
170.875156
 21
131.247653
  0
LINE
  8
3
 62
7
  6
CONTINUOUS
 10
155.025156
 20
117.493138
 11
158.384548
 21
122.464504
  0
LINE
  8
3
 62
7
  6
CONTINUOUS
 10
155.025156
 20
117.493138
 11
160.420158
 21
120.118771
  0
LINE
  8
3
 62
7
  6
CONTINUOUS
 10
223.060262
 20
167.211162
 11
243.693548
 21
179.098577
  0
LINE
  8
3
 62
7
  6
CONTINUOUS
 10
223.060262
 20
167.211162
 11
227.306792
 21
171.449910
  0
LINE
  8
3
 62
7
  6
CONTINUOUS
 10
223.060262
 20
167.211162
 11
228.857239
 21
168.758761
  0
DIMENSION
  8
3
 62
7
  6
CONTINUOUS
  2
*D1
 10
170.375156
 20
46.747653
 11
163.375156
 21
46.747653
 70
     0
  1
14
 13
170.375156
 23
79.393140
 14
156.375156
 24
61.193140
 50
180.000000
  0
DIMENSION
  8
3
 62
7
  6
CONTINUOUS
  2
*D2
 10
170.375156
 20
53.424771
 11
167.375156
 21
53.424771
 70
     0
  1
6
 13
170.375156
 23
79.393140
 14
164.375156
 24
79.393140
 50
180.000000
  0
DIMENSION
  8
3
 62
7
  6
CONTINUOUS
  2
*D3
 10
128.439736
 20
105.393140
 11
128.439736
 21
93.393140
 70
     0
  1
24
 13
101.875156
 23
105.393140
 14
101.875156
 24
81.393140
 50
-90.000000
  0
DIMENSION
  8
3
 62
7
  6
CONTINUOUS
  2
*D4
 10
71.525155
 20
52.046813
 11
81.375156
 21
52.046813
 70
     0
  1
(φ20)
 13
71.525155
 23
83.493140
 14
91.225156
 24
83.493140
 50
0.000000
  0
DIMENSION
  8
3
 62
7
  6
CONTINUOUS
  2
*D5
 10
47.875156
 20
38.747653
 11
81.375156
 21
38.747653
 70
     0
  1
67
 13
47.875156
 23
85.834658
 14
114.875156
 24
85.834658
 50
0.000000
  0
DIMENSION
  8
3
 62
7
  6
CONTINUOUS
  2
*D6
 10
52.375156
 20
45.247653
 11
81.375156
 21
45.247653
 70
     0
  1
58±0.5
 13
52.375156
 23
89.143140
 14
110.375156
 24
89.143140
 50
0.000000
  0
DIMENSION
  8
3
 62
7
  6
CONTINUOUS
  2
*D7
 10
30.745114
 20
63.193140
 11
30.745114
 21
99.343140
 70
     0
  1
(72.3)
 13
80.375156
 23
63.193140
 14
70.139769
 24
135.493140
 50
90.000000
  0
DIMENSION
  8
3
 62
7
  6
CONTINUOUS
  2
*D8
 10
38.813059
 20
63.193140
 11
38.813059
 21
69.943140
 70
     0
  1
13.5
 13
76.625157
 23
63.193140
 14
73.819156
 24
76.693140
 50
90.000000
  0
DIMENSION
  8
3
 62
7
  6
CONTINUOUS
  2
*D9
 10
38.813059
 20
76.693140
 11
38.813059
 21
80.193140
 70
     0
  1
7
 13
38.813059
 23
76.693140
 14
71.525155
 24
83.693140
 50
90.000000
  0
DIMENSION
  8
3
 62
7
  6
CONTINUOUS
  2
*D10
 10
52.875156
 20
190.461859
 11
52.875156
 21
181.861861
 70
     0
  1
17.2
 13
71.337743
 23
190.461859
 14
74.985981
 24
173.261864
 50
-90.000000
  0
DIMENSION
  8
3
 62
7
  6
CONTINUOUS
  2
*D11
 10
94.675156
 20
152.845751
 11
81.375156
 21
152.845751
 70
     0
  1
φ26.6
 13
94.675156
 23
97.501967
 14
68.075156
 24
97.501964
 50
180.000000
  0
DIMENSION
  8
3
 62
7
  6
CONTINUOUS
  2
*D12
 10
70.861540
 20
145.493140
 11
81.561540
 21
145.493140
 70
     0
  1
φ21.4
 13
70.861540
 23
139.915204
 14
92.261540
 24
139.915204
 50
0.000000
  0
LINE
  8
3
 62
7
  6
CONTINUOUS
 10
150.819156
 20
67.849135
 11
123.367069
 21
38.622303
  0
LINE
  8
3
 62
7
  6
CONTINUOUS
 10
123.367069
 20
38.622303
 11
174.552185
 21
38.622303
  0
TEXT
  8
3
 62
7
  6
CONTINUOUS
 10
148.552185
 20
38.622303
 40
4.000000
 41
0.500000
  1
7/16-20UNFﾌﾚｱ
  7
KANJI
 50
0.000000
 51
0.000000
  0
LINE
  8
3
 62
7
  6
CONTINUOUS
 10
150.819156
 20
67.849135
 11
149.401203
 21
65.205386
  0
LINE
  8
3
 62
7
  6
CONTINUOUS
 10
150.819156
 20
67.849135
 11
148.269298
 21
66.268558
  0
LINE
  8
3
 62
7
  6
CONTINUOUS
 10
150.375156
 20
81.387566
 11
142.320518
 21
73.622663
  0
LINE
  8
3
 62
7
  6
CONTINUOUS
 10
142.320518
 20
73.622663
 11
119.729795
 21
73.622663
  0
TEXT
  8
3
 62
7
  6
CONTINUOUS
 10
119.729795
 20
74.386646
 40
4.000000
 41
0.500000
  1
HEX12
  7
KANJI
 50
0.000000
 51
0.000000
  0
LINE
  8
3
 62
7
  6
CONTINUOUS
 10
150.375156
 20
81.387566
 11
148.827832
 21
78.817393
  0
LINE
  8
3
 62
7
  6
CONTINUOUS
 10
150.375156
 20
81.387566
 11
147.750048
 21
79.935393
  0
LINE
  8
3
 62
7
  6
CONTINUOUS
 10
111.981405
 20
94.968723
 11
123.375156
 21
111.247653
  0
LINE
  8
3
 62
7
  6
CONTINUOUS
 10
123.375156
 20
111.247653
 11
143.625156
 21
111.247653
  0
TEXT
  8
3
 62
7
  6
CONTINUOUS
 10
125.625156
 20
111.247653
 40
4.000000
 41
1.000000
  1
穴径φ4.5
  7
KANJI
 50
0.000000
 51
0.000000
  0
LINE
  8
3
 62
7
  6
CONTINUOUS
 10
111.981405
 20
94.968723
 11
113.006899
 21
97.788007
  0
LINE
  8
3
 62
7
  6
CONTINUOUS
 10
111.981405
 20
94.968723
 11
114.279151
 21
96.897548
  0
TEXT
  8
2
 62
7
  6
CONTINUOUS
 10
82.896806
 20
108.930110
 40
4.000000
 41
1.000000
  1
１
  7
KANJI
 50
0.000000
 51
0.000000
  0
TEXT
  8
2
 62
7
  6
CONTINUOUS
 10
77.896806
 20
108.930110
 40
4.000000
 41
1.000000
  1
３
  7
KANJI
 50
0.000000
 51
0.000000
  0
TEXT
  8
3
 62
7
  6
CONTINUOUS
 10
160.606748
 20
179.751834
 40
4.000000
 41
1.000000
  1
1000±50
  7
KANJI
 50
0.000000
 51
0.000000
  0
TEXT
  8
3
 62
7
  6
CONTINUOUS
 10
242.051608
 20
174.550409
 40
4.000000
 41
1.000000
  1
（日本圧着端子製）
  7
KANJI
 50
0.000000
 51
0.000000
  0
TEXT
  8
2
 62
7
  6
CONTINUOUS
 10
87.455574
 20
177.466388
 40
4.000000
 41
0.500000
  1
1
  7
KANJI
 50
0.000000
 51
0.000000
  0
TEXT
  8
3
 62
7
  6
CONTINUOUS
 10
253.327819
 20
109.879538
 40
4.000000
 41
1.000000
  1
黒色：XSK-AC30B,AC35B
  7
KANJI
 50
0.000000
 51
0.000000
  0
TEXT
  8
3
 62
7
  6
CONTINUOUS
 10
241.147709
 20
115.157598
 40
4.000000
 41
1.000000
  1
本体　青色：XSK-AC10B
  7
KANJI
 50
0.000000
 51
0.000000
  0
LINE
  8
3
 62
7
  6
CONTINUOUS
 10
177.144569
 20
168.321083
 11
193.013523
 21
191.205785
  0
LINE
  8
3
 62
7
  6
CONTINUOUS
 10
193.013523
 20
191.205785
 11
198.099530
 21
191.205785
  0
TEXT
  8
3
 62
7
  6
CONTINUOUS
 10
194.099530
 20
191.205785
 40
4.000000
 41
1.000000
  1
白
  7
KANJI
 50
0.000000
 51
0.000000
  0
LINE
  8
3
 62
7
  6
CONTINUOUS
 10
177.144569
 20
168.321083
 11
178.157758
 21
171.144813
  0
LINE
  8
3
 62
7
  6
CONTINUOUS
 10
177.144569
 20
168.321083
 11
179.433881
 21
170.259910
  0
LINE
  8
3
 62
7
  6
CONTINUOUS
 10
179.149068
 20
166.107782
 11
193.785850
 21
185.716394
  0
LINE
  8
3
 62
7
  6
CONTINUOUS
 10
193.785850
 20
185.716394
 11
199.013030
 21
185.716394
  0
TEXT
  8
3
 62
7
  6
CONTINUOUS
 10
195.013030
 20
185.716394
 40
4.000000
 41
1.000000
  1
赤
  7
KANJI
 50
0.000000
 51
0.000000
  0
LINE
  8
3
 62
7
  6
CONTINUOUS
 10
179.149068
 20
166.107782
 11
180.260224
 21
168.894417
  0
LINE
  8
3
 62
7
  6
CONTINUOUS
 10
179.149068
 20
166.107782
 11
181.504674
 21
167.965501
  0
TEXT
  8
3
 62
7
  6
CONTINUOUS
 10
245.477048
 20
179.816877
 40
4.000000
 41
0.500000
  1
ELR-02V
  7
KANJI
 50
0.000000
 51
0.000000
  0
TEXT
  8
3
 62
7
  6
CONTINUOUS
 10
245.305075
 20
183.904904
 40
4.000000
 41
1.000000
  1
中継接続用ｺﾈｸﾀ
  7
KANJI
 50
0.000000
 51
0.000000
  0
LINE
  8
3
 62
7
  6
CONTINUOUS
 10
243.693548
 20
179.098577
 11
275.473507
 21
179.098577
  0
TEXT
  8
3
 62
7
  6
CONTINUOUS
 10
171.221770
 20
136.593305
 40
4.000000
 41
1.000000
  1
中継接続用防滴コネクタ
  7
KANJI
 50
0.000000
 51
0.000000
  0
TEXT
  8
3
 62
7
  6
CONTINUOUS
 10
171.839997
 20
131.954739
 40
4.000000
 41
0.500000
  1
52117-0240
  7
KANJI
 50
0.000000
 51
0.000000
  0
TEXT
  8
3
 62
7
  6
CONTINUOUS
 10
168.594007
 20
126.522944
 40
4.000000
 41
1.000000
  1
（日本モレックス製）
  7
KANJI
 50
0.000000
 51
0.000000
  0
LINE
  8
3
 62
7
  6
CONTINUOUS
 10
170.875156
 20
131.247653
 11
214.572805
 21
131.247653
  0
TEXT
  8
2
 62
7
  6
CONTINUOUS
 10
79.186587
 20
9.546715
 40
12.000000
 41
0.500000
  1
1:2
  7
KANJI
 50
0.000000
 51
0.000000
  0
TEXT
  8
2
 62
7
  6
CONTINUOUS
 10
116.416523
 20
9.443585
 40
12.000000
 41
0.500000
  1
XSK-AC*0B
  7
KANJI
 50
0.000000
 51
0.000000
  0
ENDSEC
  0
EOF
