  0
SECTION
  2
HEADER
  9
$ACADVER
  1
AC1003
  9
$INSBASE
 10
0.000000
 20
0.000000
  9
$EXTMIN
 10
0.000000
 20
0.000000
  9
$EXTMAX
 10
514.000000
 20
364.000000
  9
$LIMMIN
 10
0.000000
 20
0.000000
  9
$LIMMAX
 10
514.000000
 20
364.000000
  9
$VIEWCTR
 10
257.000000
 20
182.000000
  9
$VIEWSIZE
 40
364.000000
  9
$PEXTMIN
 10
0.000000
 20
0.000000
 30
0.000000
  9
$PEXTMAX
 10
257.000000
 20
182.000000
 30
0.000000
  9
$SNAPMODE
 70
     0
  9
$SNAPUNIT
 10
1.000000
 20
1.000000
  9
$SNAPBASE
 10
0.000000
 20
0.000000
  9
$SNAPANG
 50
0.000000
  9
$SNAPISOPAIR
 70
     0
  9
$SNAPSTYLE
 70
     0
  9
$GRIDMODE
 70
     0
  9
$GRIDUNIT
 10
0.000000
 20
0.000000
  9
$ORTHOMODE
 70
     0
  9
$REGENMODE
 70
     1
  9
$FILLMODE
 70
     1
  9
$QTEXTMODE
 70
     0
  9
$DRAGMODE
 70
     2
  9
$LTSCALE
 40
0.500000
  9
$OSMODE
 70
     0
  9
$ATTMODE
 70
     1
  9
$TEXTSIZE
 40
10.000000
  9
$TRACEWID
 40
0.050000
  9
$TEXTSTYLE
  7
STANDARD
  9
$CLAYER
  8
0
  9
$CELTYPE
  6
BYLAYER
  9
$CECOLOR
 62
   256
  9
$DIMSCALE
 40
1.000000
  9
$DIMASZ
 40
1.000000
  9
$DIMEXO
 40
0.000000
  9
$DIMDLI
 40
0.500000
  9
$DIMRND
 40
0.000000
  9
$DIMDLE
 40
0.000000
  9
$DIMEXE
 40
0.000000
  9
$DIMTP
 40
0.000000
  9
$DIMTM
 40
0.000000
  9
$DIMTXT
 40
4.000000
  9
$DIMCEN
 40
0.000000
  9
$DIMTSZ
 40
0.000000
  9
$DIMTOL
 70
     0
  9
$DIMLIM
 70
     0
  9
$DIMTIH
 70
     1
  9
$DIMTOH
 70
     1
  9
$DIMSE1
 70
     0
  9
$DIMSE2
 70
     0
  9
$DIMTAD
 70
     0
  9
$DIMZIN
 70
     0
  9
$DIMBLK
  1

  9
$DIMASO
 70
     0
  9
$DIMSHO
 70
     0
  9
$DIMPOST
  1

  9
$DIMAPOST
  1

  9
$DIMALT
 70
     0
  9
$DIMALTD
 70
     0
  9
$DIMALTF
 40
25.400000
  9
$DIMLFAC
 40
1.000000
  9
$DIMTOFL
 70
     0
  9
$DIMTVP
 40
0.000000
  9
$DIMTIX
 70
     0
  9
$DIMSOXD
 70
     0
  9
$DIMSAH
 70
     0
  9
$DIMBLKL
  1

  9
$DIMBLKR
  1

  9
$LUNITS
 70
     2
  9
$LUPREC
 70
     2
  9
$AXISMODE
 70
     0
  9
$AXISUNIT
 10
1.000000
 20
1.000000
  9
$SKETCHINC
 40
0.000000
  9
$FILLETRAD
 40
0.000000
  9
$AUNITS
 70
     1
  9
$AUPREC
 70
     2
  9
$MENU
  1
ACAD
  9
$ELEVATION
 40
0.000000
  9
$THICKNESS
 40
0.000000
  9
$VIEWDIR
 10
0.000000
 20
0.000000
 30
1.000000
  9
$LIMCHECK
 70
     1
  9
$BLIPMODE
 70
     1
  9
$CHAMFERA
 40
0.000000
  9
$CHAMFERB
 40
0.000000
  9
$FASTZOOM
 70
     1
  9
$SKPOLY
 70
     0
  9
$TDCREATE
 40
0.000000
  9
$TDUPDATE
 40
0.000000
  9
$TDINDWG
 40
0.000000
  9
$TDUSRTIMER
 40
0.000000
  9
$USRTIMER
 70
     1
  9
$ANGBASE
 50
0.000000
  9
$ANGDIR
 70
     0
  9
$PDMODE
 70
     0
  9
$PDSIZE
 40
0.000000
  9
$PLINEWID
 40
0.000000
  9
$COORDS
 70
     2
  9
$USERI1
 70
     0
  9
$USERI2
 70
     0
  9
$USERI3
 70
     0
  9
$USERI4
 70
     0
  9
$USERI5
 70
     0
  9
$USERR1
 40
0.000000
  9
$USERR2
 40
0.000000
  9
$USERR3
 40
0.000000
  9
$USERR4
 40
0.000000
  9
$USERR5
 40
0.000000
  0
ENDSEC
  0
SECTION
  2
TABLES
  0
TABLE
  2
LTYPE
 70
     5
  0
LTYPE
  2
CONTINUOUS
 70
    64
  3
Solid line
 72
    65
 73
     0
 40
0.0
  0
LTYPE
  2
HIDDEN
 70
    64
  3
------------------------
 72
    65
 73
     2
 40
12.6
 49
8.4
 49
-4.2
  0
LTYPE
  2
DOT
 70
    64
  3
････････････････････････
 72
    65
 73
     2
 40
8.0
 49
6.0
 49
-2.0
  0
LTYPE
  2
DASHDOT
 70
    64
  3
--･--･--･--･--･--･--･--
 72
    65
 73
     4
 40
50.5
 49
30.0
 49
-9.0
 49
2.5
 49
-9.0
  0
LTYPE
  2
DIVIDE
 70
    64
  3
--･･--･･--･･--･･--･･--
 72
    65
 73
     6
 40
58.0
 49
30.0
 49
-9.0
 49
2.5
 49
-5.0
 49
2.5
 49
-9.0
  0
LTYPE
  2
ACAD_ISO06W100
 70
    64
  3
____ ... ____ ... ____
 72
    65
 73
     8
 40
37.5
 49
24.0
 49
-3.0
 49
0.5
 49
-3.0
 49
0.5
 49
-3.0
 49
0.5
 49
-3.0
  0
LTYPE
  2
ACAD_ISO14W100
 70
    64
  3
__ . . . __ . . . __ . . . 
 72
    65
 73
     8
 40
25.5
 49
12.0
 49
-3.0
 49
0.5
 49
-3.0
 49
0.5
 49
-3.0
 49
0.5
 49
-3.0
  0
ENDTAB
  0
TABLE
  2
LAYER
 70
5
  0
LAYER
  2
1
 70
64
 62
7
  6
CONTINUOUS
  0
LAYER
  2
2
 70
64
 62
7
  6
CONTINUOUS
  0
LAYER
  2
3
 70
64
 62
7
  6
CONTINUOUS
  0
LAYER
  2
4
 70
64
 62
7
  6
CONTINUOUS
  0
LAYER
  2
5
 70
64
 62
7
  6
CONTINUOUS
  0
ENDTAB
  0
TABLE
  2
STYLE
 70
     2
  0
STYLE
  2
STANDARD
 70
    64
 40
0.0
 41
1.0
 50
0.0
 71
     0
 42
0.2
  3
TXT
  4

  0
STYLE
  2
KANJI
 70
    64
 40
0.0
 41
1.0
 50
0.0
 71
     0
 42
0.2
  3
TXT
  4
BIGFONT
  0
ENDTAB
  0
TABLE
  2
VIEW
 70
     0
  0
ENDTAB
  0
ENDSEC
  0
SECTION
  2
BLOCKS
  0
BLOCK
  8
3
 62
7
  6
CONTINUOUS
  2
*D1
 70
    65
 10
0.0
 20
0.0
  0
LINE
  8
3
 62
7
  6
CONTINUOUS
 10
158.389600
 20
182.456105
 11
259.389600
 21
182.456105
  0
LINE
  8
3
 62
7
  6
CONTINUOUS
 10
158.389600
 20
183.456105
 11
158.389600
 21
120.556104
  0
LINE
  8
3
 62
7
  6
CONTINUOUS
 10
259.389600
 20
183.456105
 11
259.389600
 21
120.556104
  0
LINE
  8
3
 62
7
  6
CONTINUOUS
 10
158.389600
 20
182.456105
 11
161.287377
 21
183.232562
  0
LINE
  8
3
 62
7
  6
CONTINUOUS
 10
158.389600
 20
182.456105
 11
161.287377
 21
181.679648
  0
LINE
  8
3
 62
7
  6
CONTINUOUS
 10
259.389600
 20
182.456105
 11
256.491823
 21
181.679648
  0
LINE
  8
3
 62
7
  6
CONTINUOUS
 10
259.389600
 20
182.456105
 11
256.491823
 21
183.232562
  0
TEXT
  8
3
 62
7
  6
CONTINUOUS
 10
203.689600
 20
182.856105
 40
4.000000
 41
1.000000
  1
φ101
  7
KANJI
 50
0.000000
 51
0.000000
  0
ENDBLK
  0
BLOCK
  8
3
 62
7
  6
CONTINUOUS
  2
*D2
 70
    65
 10
0.0
 20
0.0
  0
LINE
  8
3
 62
7
  6
CONTINUOUS
 10
276.389601
 20
71.356106
 11
276.389601
 21
168.456104
  0
LINE
  8
3
 62
7
  6
CONTINUOUS
 10
277.389601
 20
71.356106
 11
219.389599
 21
71.356106
  0
LINE
  8
3
 62
7
  6
CONTINUOUS
 10
277.389601
 20
168.456104
 11
230.389600
 21
168.456104
  0
LINE
  8
3
 62
7
  6
CONTINUOUS
 10
276.389601
 20
71.356106
 11
275.613144
 21
74.253883
  0
LINE
  8
3
 62
7
  6
CONTINUOUS
 10
276.389601
 20
71.356106
 11
277.166058
 21
74.253883
  0
LINE
  8
3
 62
7
  6
CONTINUOUS
 10
276.389601
 20
168.456104
 11
277.166058
 21
165.558327
  0
LINE
  8
3
 62
7
  6
CONTINUOUS
 10
276.389601
 20
168.456104
 11
275.613144
 21
165.558327
  0
TEXT
  8
3
 62
7
  6
CONTINUOUS
 10
275.989601
 20
115.706105
 40
4.000000
 41
0.500000
  1
(97)
  7
KANJI
 50
90.000000
 51
0.000000
  0
ENDBLK
  0
BLOCK
  8
3
 62
7
  6
CONTINUOUS
  2
*D3
 70
    65
 10
0.0
 20
0.0
  0
LINE
  8
3
 62
7
  6
CONTINUOUS
 10
269.389600
 20
117.356104
 11
269.389600
 21
168.456104
  0
LINE
  8
3
 62
7
  6
CONTINUOUS
 10
270.389600
 20
117.356104
 11
259.889600
 21
117.356104
  0
LINE
  8
3
 62
7
  6
CONTINUOUS
 10
269.389600
 20
117.356104
 11
268.613142
 21
120.253882
  0
LINE
  8
3
 62
7
  6
CONTINUOUS
 10
269.389600
 20
117.356104
 11
270.166057
 21
120.253882
  0
LINE
  8
3
 62
7
  6
CONTINUOUS
 10
269.389600
 20
168.456104
 11
270.166057
 21
165.558327
  0
LINE
  8
3
 62
7
  6
CONTINUOUS
 10
269.389600
 20
168.456104
 11
268.613142
 21
165.558327
  0
TEXT
  8
3
 62
7
  6
CONTINUOUS
 10
268.989600
 20
138.706103
 40
4.000000
 41
0.500000
  1
(51)
  7
KANJI
 50
90.000000
 51
0.000000
  0
ENDBLK
  0
BLOCK
  8
3
 62
7
  6
CONTINUOUS
  2
*D4
 70
    65
 10
0.0
 20
0.0
  0
LINE
  8
3
 62
7
  6
CONTINUOUS
 10
177.889600
 20
175.456104
 11
239.889600
 21
175.456104
  0
LINE
  8
3
 62
7
  6
CONTINUOUS
 10
177.889600
 20
176.456104
 11
177.889600
 21
158.956105
  0
LINE
  8
3
 62
7
  6
CONTINUOUS
 10
239.889600
 20
176.456104
 11
239.889600
 21
158.956105
  0
LINE
  8
3
 62
7
  6
CONTINUOUS
 10
177.889600
 20
175.456104
 11
180.787378
 21
176.232561
  0
LINE
  8
3
 62
7
  6
CONTINUOUS
 10
177.889600
 20
175.456104
 11
180.787378
 21
174.679647
  0
LINE
  8
3
 62
7
  6
CONTINUOUS
 10
239.889600
 20
175.456104
 11
236.991822
 21
174.679647
  0
LINE
  8
3
 62
7
  6
CONTINUOUS
 10
239.889600
 20
175.456104
 11
236.991822
 21
176.232561
  0
TEXT
  8
3
 62
7
  6
CONTINUOUS
 10
206.689599
 20
175.856104
 40
4.000000
 41
0.500000
  1
62
  7
KANJI
 50
0.000000
 51
0.000000
  0
ENDBLK
  0
BLOCK
  8
3
 62
7
  6
CONTINUOUS
  2
*D5
 70
    65
 10
0.0
 20
0.0
  0
LINE
  8
3
 62
7
  6
CONTINUOUS
 10
269.389600
 20
71.356106
 11
269.389600
 21
117.356104
  0
LINE
  8
3
 62
7
  6
CONTINUOUS
 10
269.389600
 20
71.356106
 11
268.613142
 21
74.253883
  0
LINE
  8
3
 62
7
  6
CONTINUOUS
 10
269.389600
 20
71.356106
 11
270.166057
 21
74.253883
  0
LINE
  8
3
 62
7
  6
CONTINUOUS
 10
269.389600
 20
117.356104
 11
270.166057
 21
114.458327
  0
LINE
  8
3
 62
7
  6
CONTINUOUS
 10
269.389600
 20
117.356104
 11
268.613142
 21
114.458327
  0
TEXT
  8
3
 62
7
  6
CONTINUOUS
 10
268.989600
 20
92.156105
 40
4.000000
 41
0.500000
  1
46
  7
KANJI
 50
90.000000
 51
0.000000
  0
ENDBLK
  0
BLOCK
  8
3
 62
7
  6
CONTINUOUS
  2
*D6
 70
    65
 10
0.0
 20
0.0
  0
LINE
  8
3
 62
7
  6
CONTINUOUS
 10
195.389599
 20
55.356105
 11
222.389601
 21
55.356105
  0
LINE
  8
3
 62
7
  6
CONTINUOUS
 10
195.389599
 20
54.356105
 11
195.389599
 21
84.356105
  0
LINE
  8
3
 62
7
  6
CONTINUOUS
 10
222.389601
 20
54.356105
 11
222.389601
 21
84.356105
  0
LINE
  8
3
 62
7
  6
CONTINUOUS
 10
195.389599
 20
55.356105
 11
198.287377
 21
56.132562
  0
LINE
  8
3
 62
7
  6
CONTINUOUS
 10
195.389599
 20
55.356105
 11
198.287377
 21
54.579648
  0
LINE
  8
3
 62
7
  6
CONTINUOUS
 10
222.389601
 20
55.356105
 11
219.491823
 21
54.579648
  0
LINE
  8
3
 62
7
  6
CONTINUOUS
 10
222.389601
 20
55.356105
 11
219.491823
 21
56.132562
  0
TEXT
  8
3
 62
7
  6
CONTINUOUS
 10
206.689599
 20
55.756105
 40
4.000000
 41
0.500000
  1
27
  7
KANJI
 50
0.000000
 51
0.000000
  0
ENDBLK
  0
BLOCK
  8
3
 62
7
  6
CONTINUOUS
  2
*D7
 70
    65
 10
0.0
 20
0.0
  0
LINE
  8
3
 62
7
  6
CONTINUOUS
 10
47.100752
 20
175.456104
 11
124.100751
 21
175.456104
  0
LINE
  8
3
 62
7
  6
CONTINUOUS
 10
47.100752
 20
176.456104
 11
47.100752
 21
166.956104
  0
LINE
  8
3
 62
7
  6
CONTINUOUS
 10
124.100751
 20
176.456104
 11
124.100751
 21
166.956104
  0
LINE
  8
3
 62
7
  6
CONTINUOUS
 10
47.100752
 20
175.456104
 11
49.998530
 21
176.232561
  0
LINE
  8
3
 62
7
  6
CONTINUOUS
 10
47.100752
 20
175.456104
 11
49.998530
 21
174.679647
  0
LINE
  8
3
 62
7
  6
CONTINUOUS
 10
124.100751
 20
175.456104
 11
121.202973
 21
174.679647
  0
LINE
  8
3
 62
7
  6
CONTINUOUS
 10
124.100751
 20
175.456104
 11
121.202973
 21
176.232561
  0
TEXT
  8
3
 62
7
  6
CONTINUOUS
 10
83.400750
 20
175.856104
 40
4.000000
 41
0.500000
  1
77
  7
KANJI
 50
0.000000
 51
0.000000
  0
ENDBLK
  0
BLOCK
  8
3
 62
7
  6
CONTINUOUS
  2
*D8
 70
    65
 10
0.0
 20
0.0
  0
LINE
  8
3
 62
7
  6
CONTINUOUS
 10
54.600752
 20
55.356105
 11
123.600751
 21
55.356105
  0
LINE
  8
3
 62
7
  6
CONTINUOUS
 10
54.600752
 20
54.356105
 11
54.600752
 21
79.356105
  0
LINE
  8
3
 62
7
  6
CONTINUOUS
 10
123.600751
 20
54.356105
 11
123.600751
 21
79.356105
  0
LINE
  8
3
 62
7
  6
CONTINUOUS
 10
54.600752
 20
55.356105
 11
57.498529
 21
56.132562
  0
LINE
  8
3
 62
7
  6
CONTINUOUS
 10
54.600752
 20
55.356105
 11
57.498529
 21
54.579648
  0
LINE
  8
3
 62
7
  6
CONTINUOUS
 10
123.600751
 20
55.356105
 11
120.702973
 21
54.579648
  0
LINE
  8
3
 62
7
  6
CONTINUOUS
 10
123.600751
 20
55.356105
 11
120.702973
 21
56.132562
  0
TEXT
  8
3
 62
7
  6
CONTINUOUS
 10
86.900750
 20
55.756105
 40
4.000000
 41
0.500000
  1
69
  7
KANJI
 50
0.000000
 51
0.000000
  0
ENDBLK
  0
ENDSEC
  0
SECTION
  2
ENTITIES
  0
LINE
  8
1
 62
7
  6
CONTINUOUS
 10
259.389600
 20
117.356104
 11
158.389600
 21
117.356104
  0
LINE
  8
1
 62
7
  6
CONTINUOUS
 10
198.889601
 20
71.356106
 11
218.889599
 21
71.356106
  0
LINE
  8
1
 62
7
  6
CONTINUOUS
 10
198.889601
 20
80.086408
 11
198.889601
 21
71.356106
  0
ARC
  8
1
 62
7
  6
CONTINUOUS
 10
200.389599
 20
84.856105
 40
5.000000
 50
180.000000
 51
-107.457584
  0
LINE
  8
1
 62
7
  6
CONTINUOUS
 10
218.889599
 20
71.356106
 11
218.889599
 21
80.086408
  0
ARC
  8
1
 62
7
  6
CONTINUOUS
 10
217.389601
 20
84.856105
 40
5.000000
 50
-72.542416
 51
0.000000
  0
ARC
  8
1
 62
7
  6
CONTINUOUS
 10
160.389600
 20
114.356105
 40
2.000000
 50
180.000000
 51
-90.000000
  0
ARC
  8
1
 62
7
  6
CONTINUOUS
 10
257.389600
 20
114.356105
 40
2.000000
 50
-90.000000
 51
0.000000
  0
ARC
  8
1
 62
7
  6
CONTINUOUS
 10
168.889601
 20
111.356105
 40
1.000000
 50
0.000000
 51
90.000000
  0
LINE
  8
1
 62
7
  6
CONTINUOUS
 10
160.389600
 20
112.356105
 11
168.889601
 21
112.356105
  0
ARC
  8
1
 62
7
  6
CONTINUOUS
 10
248.889599
 20
111.356105
 40
1.000000
 50
90.000000
 51
180.000000
  0
ARC
  8
1
 62
7
  6
CONTINUOUS
 10
224.389601
 20
110.356105
 40
2.000000
 50
90.000000
 51
180.000000
  0
LINE
  8
1
 62
7
  6
CONTINUOUS
 10
257.389600
 20
112.356105
 11
224.389601
 21
112.356105
  0
LINE
  8
1
 62
7
  6
CONTINUOUS
 10
222.389601
 20
112.856105
 11
222.389601
 21
84.856105
  0
ARC
  8
1
 62
7
  6
CONTINUOUS
 10
224.389601
 20
112.856105
 40
2.000000
 50
90.000000
 51
180.000000
  0
ARC
  8
1
 62
7
  6
CONTINUOUS
 10
246.889599
 20
110.356105
 40
1.000000
 50
-90.000000
 51
0.000000
  0
LINE
  8
1
 62
7
  6
CONTINUOUS
 10
247.889599
 20
111.356105
 11
247.889599
 21
110.356105
  0
ARC
  8
1
 62
7
  6
CONTINUOUS
 10
224.389601
 20
103.357894
 40
2.000000
 50
100.000004
 51
180.000000
  0
LINE
  8
1
 62
7
  6
CONTINUOUS
 10
246.889599
 20
109.356105
 11
224.042305
 21
105.327509
  0
ARC
  8
1
 62
7
  6
CONTINUOUS
 10
224.389601
 20
107.356105
 40
2.000000
 50
90.000000
 51
180.000000
  0
LINE
  8
1
 62
7
  6
CONTINUOUS
 10
224.389601
 20
109.356105
 11
246.889599
 21
109.356105
  0
ARC
  8
1
 62
7
  6
CONTINUOUS
 10
193.389599
 20
110.356105
 40
2.000000
 50
0.000000
 51
90.000000
  0
LINE
  8
1
 62
7
  6
CONTINUOUS
 10
160.389600
 20
112.356105
 11
193.389599
 21
112.356105
  0
ARC
  8
1
 62
7
  6
CONTINUOUS
 10
193.389599
 20
107.356105
 40
2.000000
 50
0.000000
 51
90.000000
  0
ARC
  8
1
 62
7
  6
CONTINUOUS
 10
193.389599
 20
112.856105
 40
2.000000
 50
0.000000
 51
90.000000
  0
LINE
  8
1
 62
7
  6
CONTINUOUS
 10
195.389599
 20
112.856105
 11
195.389599
 21
84.856105
  0
LINE
  8
1
 62
7
  6
CONTINUOUS
 10
259.389600
 20
114.856105
 11
158.389600
 21
114.856105
  0
ARC
  8
1
 62
7
  6
CONTINUOUS
 10
170.889601
 20
110.356105
 40
1.000000
 50
180.000000
 51
-90.000000
  0
LINE
  8
1
 62
7
  6
CONTINUOUS
 10
169.889601
 20
111.356105
 11
169.889601
 21
110.356105
  0
LINE
  8
1
 62
7
  6
CONTINUOUS
 10
193.389599
 20
109.356105
 11
170.889601
 21
109.356105
  0
ARC
  8
1
 62
7
  6
CONTINUOUS
 10
193.389599
 20
103.359184
 40
2.000000
 50
0.000000
 51
79.853929
  0
LINE
  8
1
 62
7
  6
CONTINUOUS
 10
171.232600
 20
109.356105
 11
193.741916
 21
105.327909
  0
CIRCLE
  8
1
 62
7
  6
CONTINUOUS
 10
208.889600
 20
93.356104
 40
9.315499
  0
LINE
  8
1
 62
7
  6
CONTINUOUS
 10
198.889601
 20
80.086408
 11
218.889599
 21
80.086408
  0
LINE
  8
1
 62
7
  6
CONTINUOUS
 10
204.389600
 20
66.356104
 11
205.389600
 21
65.356104
  0
LINE
  8
1
 62
7
  6
CONTINUOUS
 10
204.389600
 20
68.856104
 11
204.389600
 21
66.356104
  0
LINE
  8
1
 62
7
  6
CONTINUOUS
 10
212.389600
 20
65.356104
 11
213.389600
 21
66.356104
  0
LINE
  8
1
 62
7
  6
CONTINUOUS
 10
204.389600
 20
69.856104
 11
204.389600
 21
70.856104
  0
LINE
  8
1
 62
7
  6
CONTINUOUS
 10
204.389600
 20
66.356104
 11
213.389600
 21
66.356104
  0
LINE
  8
1
 62
7
  6
CONTINUOUS
 10
205.389600
 20
65.356104
 11
212.389600
 21
65.356104
  0
LINE
  8
1
 62
7
  6
CONTINUOUS
 10
203.889600
 20
70.856104
 11
213.889600
 21
70.856104
  0
LINE
  8
1
 62
7
  6
CONTINUOUS
 10
203.389599
 20
71.356106
 11
203.889600
 21
70.856104
  0
LINE
  8
1
 62
7
  6
CONTINUOUS
 10
213.889600
 20
70.856104
 11
214.389601
 21
71.356106
  0
LINE
  8
1
 62
7
  6
CONTINUOUS
 10
213.389600
 20
69.856104
 11
201.889600
 21
69.856104
  0
LINE
  8
1
 62
7
  6
CONTINUOUS
 10
201.889600
 20
68.856104
 11
213.389600
 21
68.856104
  0
LINE
  8
1
 62
7
  6
CONTINUOUS
 10
201.889600
 20
69.856104
 11
201.889600
 21
68.856104
  0
LINE
  8
1
 62
7
  6
CONTINUOUS
 10
213.389600
 20
66.356104
 11
213.389600
 21
70.856104
  0
ARC
  8
1
 62
7
  6
CONTINUOUS
 10
173.889601
 20
124.056103
 40
2.000000
 50
90.000000
 51
180.000000
  0
ARC
  8
1
 62
7
  6
CONTINUOUS
 10
243.889599
 20
124.056103
 40
2.000000
 50
0.000000
 51
90.000000
  0
LINE
  8
1
 62
7
  6
CONTINUOUS
 10
202.889600
 20
121.656103
 11
214.889600
 21
121.656103
  0
CIRCLE
  8
1
 62
7
  6
CONTINUOUS
 10
208.889600
 20
150.656103
 40
10.999999
  0
LINE
  8
1
 62
7
  6
CONTINUOUS
 10
198.889601
 20
127.656103
 11
198.889601
 21
124.056103
  0
LINE
  8
1
 62
7
  6
CONTINUOUS
 10
218.889599
 20
124.056103
 11
218.889599
 21
127.656103
  0
LINE
  8
1
 62
7
  6
CONTINUOUS
 10
173.889601
 20
126.056103
 11
198.889601
 21
126.056103
  0
LINE
  8
1
 62
7
  6
CONTINUOUS
 10
218.889599
 20
126.056103
 11
243.889599
 21
126.056103
  0
ARC
  8
1
 62
7
  6
CONTINUOUS
 10
202.389600
 20
123.556103
 40
0.500000
 50
0.000000
 51
90.000000
  0
LINE
  8
1
 62
7
  6
CONTINUOUS
 10
198.889601
 20
124.056103
 11
202.389600
 21
124.056103
  0
ARC
  8
1
 62
7
  6
CONTINUOUS
 10
215.389600
 20
123.556103
 40
0.500000
 50
90.000000
 51
180.000000
  0
LINE
  8
1
 62
7
  6
CONTINUOUS
 10
215.389600
 20
124.056103
 11
218.889599
 21
124.056103
  0
LINE
  8
1
 62
7
  6
CONTINUOUS
 10
202.889600
 20
123.556103
 11
202.889600
 21
120.056104
  0
LINE
  8
1
 62
7
  6
CONTINUOUS
 10
214.889600
 20
120.056104
 11
214.889600
 21
123.556103
  0
ARC
  8
1
 62
7
  6
CONTINUOUS
 10
205.540993
 20
123.183520
 40
1.900000
 50
106.065990
 51
179.947758
  0
LINE
  8
1
 62
7
  6
CONTINUOUS
 10
203.639600
 20
121.656103
 11
203.640994
 21
123.185252
  0
ARC
  8
1
 62
7
  6
CONTINUOUS
 10
212.239599
 20
123.183119
 40
1.900000
 50
0.000000
 51
73.927143
  0
LINE
  8
1
 62
7
  6
CONTINUOUS
 10
214.139600
 20
123.183119
 11
214.139600
 21
121.656103
  0
LINE
  8
1
 62
7
  6
CONTINUOUS
 10
206.724537
 20
124.306103
 11
208.889600
 21
125.556103
  0
LINE
  8
1
 62
7
  6
CONTINUOUS
 10
208.889600
 20
125.556103
 11
211.054663
 21
124.306103
  0
ARC
  8
1
 62
7
  6
CONTINUOUS
 10
237.360798
 20
121.583520
 40
1.900000
 50
106.065990
 51
179.947758
  0
LINE
  8
1
 62
7
  6
CONTINUOUS
 10
235.459406
 20
120.056104
 11
235.460800
 21
121.585252
  0
LINE
  8
1
 62
7
  6
CONTINUOUS
 10
238.544342
 20
122.706104
 11
240.709405
 21
123.956104
  0
ARC
  8
1
 62
7
  6
CONTINUOUS
 10
244.059405
 20
121.583120
 40
1.900000
 50
0.000000
 51
73.927143
  0
LINE
  8
1
 62
7
  6
CONTINUOUS
 10
245.959405
 20
121.583120
 11
245.959405
 21
120.056104
  0
LINE
  8
1
 62
7
  6
CONTINUOUS
 10
240.709405
 20
123.956104
 11
242.874468
 21
122.706104
  0
LINE
  8
1
 62
7
  6
CONTINUOUS
 10
245.889599
 20
124.056103
 11
245.889599
 21
121.583120
  0
ARC
  8
1
 62
7
  6
CONTINUOUS
 10
250.540993
 20
121.583520
 40
1.900000
 50
106.065990
 51
179.947758
  0
LINE
  8
1
 62
7
  6
CONTINUOUS
 10
248.639601
 20
120.056104
 11
248.640995
 21
121.585252
  0
LINE
  8
1
 62
7
  6
CONTINUOUS
 10
251.724538
 20
122.706104
 11
253.889600
 21
123.956104
  0
ARC
  8
1
 62
7
  6
CONTINUOUS
 10
257.239600
 20
121.583120
 40
1.900000
 50
0.000000
 51
73.927143
  0
LINE
  8
1
 62
7
  6
CONTINUOUS
 10
253.889600
 20
123.956104
 11
256.054663
 21
122.706104
  0
LINE
  8
1
 62
7
  6
CONTINUOUS
 10
259.139600
 20
121.583120
 11
259.139600
 21
120.056104
  0
LINE
  8
1
 62
7
  6
CONTINUOUS
 10
259.389600
 20
120.056104
 11
259.389600
 21
114.356105
  0
ARC
  8
1
 62
7
  6
CONTINUOUS
 10
173.721188
 20
121.583520
 40
1.900000
 50
106.065990
 51
179.947758
  0
LINE
  8
1
 62
7
  6
CONTINUOUS
 10
171.819795
 20
120.056104
 11
171.821189
 21
121.585252
  0
LINE
  8
1
 62
7
  6
CONTINUOUS
 10
174.904732
 20
122.706104
 11
177.069795
 21
123.956104
  0
ARC
  8
1
 62
7
  6
CONTINUOUS
 10
180.419794
 20
121.583120
 40
1.900000
 50
0.000000
 51
73.927143
  0
LINE
  8
1
 62
7
  6
CONTINUOUS
 10
182.319794
 20
121.583120
 11
182.319794
 21
120.056104
  0
LINE
  8
1
 62
7
  6
CONTINUOUS
 10
177.069795
 20
123.956104
 11
179.234858
 21
122.706104
  0
LINE
  8
1
 62
7
  6
CONTINUOUS
 10
171.889601
 20
121.583520
 11
171.889601
 21
124.056103
  0
LINE
  8
1
 62
7
  6
CONTINUOUS
 10
158.639600
 20
120.056104
 11
158.640994
 21
121.585252
  0
LINE
  8
1
 62
7
  6
CONTINUOUS
 10
161.724537
 20
122.706104
 11
163.889600
 21
123.956104
  0
ARC
  8
1
 62
7
  6
CONTINUOUS
 10
160.540993
 20
121.583520
 40
1.900000
 50
106.065990
 51
179.947758
  0
ARC
  8
1
 62
7
  6
CONTINUOUS
 10
167.239599
 20
121.583120
 40
1.900000
 50
0.000000
 51
73.927143
  0
LINE
  8
1
 62
7
  6
CONTINUOUS
 10
169.139599
 20
121.583120
 11
169.139599
 21
120.056104
  0
LINE
  8
1
 62
7
  6
CONTINUOUS
 10
163.889600
 20
123.956104
 11
166.054662
 21
122.706104
  0
LINE
  8
1
 62
7
  6
CONTINUOUS
 10
158.389600
 20
120.056104
 11
259.389600
 21
120.056104
  0
LINE
  8
1
 62
7
  6
CONTINUOUS
 10
158.389600
 20
120.056104
 11
158.389600
 21
114.356105
  0
LINE
  8
1
 62
7
  6
CONTINUOUS
 10
182.639600
 20
127.656103
 11
182.639600
 21
126.456102
  0
LINE
  8
1
 62
7
  6
CONTINUOUS
 10
182.639600
 20
126.456102
 11
185.139600
 21
126.456102
  0
LINE
  8
1
 62
7
  6
CONTINUOUS
 10
185.139600
 20
126.456102
 11
185.139600
 21
127.656103
  0
LINE
  8
1
 62
7
  6
CONTINUOUS
 10
232.639600
 20
127.656103
 11
232.639600
 21
126.456102
  0
LINE
  8
1
 62
7
  6
CONTINUOUS
 10
232.639600
 20
126.456102
 11
235.139600
 21
126.456102
  0
LINE
  8
1
 62
7
  6
CONTINUOUS
 10
235.139600
 20
126.456102
 11
235.139600
 21
127.656103
  0
LINE
  8
1
 62
7
  6
CONTINUOUS
 10
158.389600
 20
118.056104
 11
259.389600
 21
118.056104
  0
ARC
  8
1
 62
7
  6
CONTINUOUS
 10
163.889600
 20
109.956103
 40
14.000001
 50
73.927144
 51
106.065994
  0
ARC
  8
1
 62
7
  6
CONTINUOUS
 10
177.069795
 20
109.956103
 40
14.000001
 50
73.927144
 51
106.065994
  0
ARC
  8
1
 62
7
  6
CONTINUOUS
 10
208.889600
 20
111.556103
 40
14.000001
 50
73.927144
 51
106.065994
  0
ARC
  8
1
 62
7
  6
CONTINUOUS
 10
240.709405
 20
109.956103
 40
14.000001
 50
73.927144
 51
106.065994
  0
ARC
  8
1
 62
7
  6
CONTINUOUS
 10
253.889600
 20
109.956103
 40
14.000001
 50
73.927144
 51
106.065994
  0
LINE
  8
1
 62
7
  6
CONTINUOUS
 10
177.889600
 20
293.768004
 11
177.889600
 21
216.768006
  0
LINE
  8
1
 62
7
  6
CONTINUOUS
 10
177.889600
 20
216.768006
 11
239.889600
 21
216.768006
  0
LINE
  8
1
 62
7
  6
CONTINUOUS
 10
239.889600
 20
216.768006
 11
239.889600
 21
293.768004
  0
LINE
  8
1
 62
7
  6
CONTINUOUS
 10
239.889600
 20
293.768004
 11
177.889600
 21
293.768004
  0
ARC
  8
1
 62
7
  6
CONTINUOUS
 10
208.889600
 20
255.268005
 40
36.999999
 50
146.912500
 51
-146.912500
  0
LINE
  8
1
 62
7
  6
CONTINUOUS
 10
174.569795
 20
287.087810
 11
177.889600
 21
287.087810
  0
LINE
  8
1
 62
7
  6
CONTINUOUS
 10
177.069795
 20
289.587810
 11
177.069795
 21
284.587810
  0
LINE
  8
1
 62
7
  6
CONTINUOUS
 10
162.121833
 20
257.035771
 11
165.657366
 21
253.500239
  0
LINE
  8
1
 62
7
  6
CONTINUOUS
 10
162.121833
 20
253.500239
 11
165.657366
 21
257.035771
  0
LINE
  8
1
 62
7
  6
CONTINUOUS
 10
174.569795
 20
223.448200
 11
177.889600
 21
223.448200
  0
LINE
  8
1
 62
7
  6
CONTINUOUS
 10
177.069795
 20
225.948199
 11
177.069795
 21
220.948200
  0
LINE
  8
1
 62
7
  6
CONTINUOUS
 10
240.709405
 20
225.948199
 11
240.709405
 21
220.948200
  0
LINE
  8
1
 62
7
  6
CONTINUOUS
 10
243.209405
 20
223.448200
 11
239.889600
 21
223.448200
  0
LINE
  8
1
 62
7
  6
CONTINUOUS
 10
252.121834
 20
257.035771
 11
255.657367
 21
253.500239
  0
LINE
  8
1
 62
7
  6
CONTINUOUS
 10
252.121834
 20
253.500239
 11
255.657367
 21
257.035771
  0
LINE
  8
1
 62
7
  6
CONTINUOUS
 10
240.709405
 20
289.587810
 11
240.709405
 21
284.587810
  0
LINE
  8
1
 62
7
  6
CONTINUOUS
 10
243.209405
 20
287.087810
 11
239.889600
 21
287.087810
  0
CIRCLE
  8
1
 62
7
  6
CONTINUOUS
 10
208.889600
 20
210.268004
 40
5.250000
  0
LINE
  8
1
 62
7
  6
CONTINUOUS
 10
207.121834
 20
212.035771
 11
210.657366
 21
208.500238
  0
LINE
  8
1
 62
7
  6
CONTINUOUS
 10
207.121834
 20
208.500238
 11
210.657366
 21
212.035771
  0
ARC
  8
1
 62
7
  6
CONTINUOUS
 10
240.709405
 20
223.448200
 40
5.250000
 50
-98.632706
 51
99.123508
  0
CIRCLE
  8
1
 62
7
  6
CONTINUOUS
 10
253.889600
 20
255.268005
 40
5.250000
  0
ARC
  8
1
 62
7
  6
CONTINUOUS
 10
208.889600
 20
255.268005
 40
36.999999
 50
-33.087500
 51
32.993973
  0
ARC
  8
1
 62
7
  6
CONTINUOUS
 10
240.709405
 20
287.087810
 40
5.250000
 50
-98.630166
 51
98.983699
  0
ARC
  8
1
 62
7
  6
CONTINUOUS
 10
177.069795
 20
287.087810
 40
5.250000
 50
82.315662
 51
-82.318074
  0
CIRCLE
  8
1
 62
7
  6
CONTINUOUS
 10
163.889600
 20
255.268005
 40
5.250000
  0
ARC
  8
1
 62
7
  6
CONTINUOUS
 10
177.069795
 20
223.448200
 40
5.250000
 50
82.385214
 51
-80.460519
  0
CIRCLE
  8
1
 62
7
  6
CONTINUOUS
 10
208.889600
 20
255.268005
 40
50.500000
  0
CIRCLE
  8
1
 62
7
  6
CONTINUOUS
 10
208.889600
 20
300.268005
 40
5.250000
  0
LINE
  8
1
 62
7
  6
CONTINUOUS
 10
207.121834
 20
302.035771
 11
210.657366
 21
298.500239
  0
LINE
  8
1
 62
7
  6
CONTINUOUS
 10
207.121834
 20
298.500239
 11
210.657366
 21
302.035771
  0
LINE
  8
1
 62
7
  6
CONTINUOUS
 10
198.889601
 20
216.768006
 11
198.889601
 21
216.068005
  0
LINE
  8
1
 62
7
  6
CONTINUOUS
 10
198.889601
 20
216.068005
 11
218.889599
 21
216.068005
  0
LINE
  8
1
 62
7
  6
CONTINUOUS
 10
218.889599
 20
216.068005
 11
218.889599
 21
216.768006
  0
LINE
  8
1
 62
7
  6
CONTINUOUS
 10
202.889600
 20
216.068005
 11
202.889600
 21
207.476501
  0
LINE
  8
1
 62
7
  6
CONTINUOUS
 10
214.889600
 20
207.476501
 11
214.889600
 21
216.068005
  0
ARC
  8
1
 62
7
  6
CONTINUOUS
 10
208.889600
 20
212.768004
 40
8.000000
 50
-138.590378
 51
-41.409622
  0
LINE
  8
1
 62
7
  6
CONTINUOUS
 10
218.889599
 20
293.768004
 11
218.889599
 21
294.468005
  0
LINE
  8
1
 62
7
  6
CONTINUOUS
 10
218.889599
 20
294.468005
 11
198.889601
 21
294.468005
  0
LINE
  8
1
 62
7
  6
CONTINUOUS
 10
214.889600
 20
294.468005
 11
214.889600
 21
303.059508
  0
LINE
  8
1
 62
7
  6
CONTINUOUS
 10
198.889601
 20
294.468005
 11
198.889601
 21
293.768004
  0
LINE
  8
1
 62
7
  6
CONTINUOUS
 10
202.889600
 20
303.059508
 11
202.889600
 21
294.468005
  0
ARC
  8
1
 62
7
  6
CONTINUOUS
 10
208.889600
 20
297.768005
 40
8.000000
 50
41.409622
 51
138.590378
  0
ARC
  8
1
 62
7
  6
CONTINUOUS
 10
173.069795
 20
113.356105
 40
1.000000
 50
180.000000
 51
-90.000000
  0
LINE
  8
1
 62
7
  6
CONTINUOUS
 10
172.069795
 20
114.856105
 11
172.069795
 21
113.356105
  0
ARC
  8
1
 62
7
  6
CONTINUOUS
 10
244.709405
 20
113.356105
 40
1.000000
 50
-90.000000
 51
0.000000
  0
LINE
  8
1
 62
7
  6
CONTINUOUS
 10
245.709405
 20
114.856105
 11
245.709405
 21
113.356105
  0
LINE
  8
1
 62
7
  6
CONTINUOUS
 10
180.889600
 20
127.656103
 11
236.889600
 21
127.656103
  0
ARC
  8
1
 62
7
  6
CONTINUOUS
 10
187.889600
 20
158.456105
 40
9.999999
 50
90.000000
 51
180.000000
  0
LINE
  8
1
 62
7
  6
CONTINUOUS
 10
187.889600
 20
168.456104
 11
229.889600
 21
168.456104
  0
ARC
  8
1
 62
7
  6
CONTINUOUS
 10
187.889600
 20
158.456105
 40
6.500000
 50
90.000000
 51
180.000000
  0
LINE
  8
1
 62
7
  6
CONTINUOUS
 10
229.889600
 20
164.956104
 11
187.889600
 21
164.956104
  0
ARC
  8
1
 62
7
  6
CONTINUOUS
 10
229.889600
 20
158.456105
 40
9.999999
 50
0.000000
 51
90.000000
  0
ARC
  8
1
 62
7
  6
CONTINUOUS
 10
229.889600
 20
158.456105
 40
6.500000
 50
0.000000
 51
90.000000
  0
ARC
  8
1
 62
7
  6
CONTINUOUS
 10
180.389600
 20
128.956102
 40
1.000000
 50
-90.000000
 51
0.000000
  0
LINE
  8
1
 62
7
  6
CONTINUOUS
 10
180.389600
 20
127.956102
 11
177.889600
 21
127.956102
  0
LINE
  8
1
 62
7
  6
CONTINUOUS
 10
177.889600
 20
127.956102
 11
177.889600
 21
158.456105
  0
LINE
  8
1
 62
7
  6
CONTINUOUS
 10
181.389600
 20
158.456105
 11
181.389600
 21
128.956102
  0
ARC
  8
1
 62
7
  6
CONTINUOUS
 10
237.389600
 20
128.956103
 40
1.000000
 50
180.000000
 51
-90.000000
  0
LINE
  8
1
 62
7
  6
CONTINUOUS
 10
239.889600
 20
127.956103
 11
237.389600
 21
127.956103
  0
LINE
  8
1
 62
7
  6
CONTINUOUS
 10
239.889600
 20
158.456105
 11
239.889600
 21
127.956103
  0
LINE
  8
1
 62
7
  6
CONTINUOUS
 10
236.389600
 20
128.956103
 11
236.389600
 21
158.456105
  0
ARC
  8
1
 62
7
  6
CONTINUOUS
 10
236.889600
 20
129.656103
 40
2.000000
 50
-90.000000
 51
-58.211635
  0
ARC
  8
1
 62
7
  6
CONTINUOUS
 10
180.889600
 20
129.656103
 40
2.000000
 50
-121.788365
 51
-90.000000
  0
LINE
  8
1
 62
7
  6
CONTINUOUS
 10
229.389600
 20
275.268005
 11
188.389600
 21
275.268005
  0
LINE
  8
1
 62
7
  6
CONTINUOUS
 10
188.389600
 20
275.268005
 11
188.389600
 21
235.268004
  0
LINE
  8
1
 62
7
  6
CONTINUOUS
 10
188.389600
 20
235.268004
 11
229.389600
 21
235.268004
  0
LINE
  8
1
 62
7
  6
CONTINUOUS
 10
229.389600
 20
235.268004
 11
229.389600
 21
275.268005
  0
ARC
  8
1
 62
7
  6
CONTINUOUS
 10
204.889600
 20
113.356105
 40
1.000000
 50
180.000000
 51
-90.000000
  0
LINE
  8
1
 62
7
  6
CONTINUOUS
 10
203.889600
 20
114.856105
 11
203.889600
 21
113.356105
  0
ARC
  8
1
 62
7
  6
CONTINUOUS
 10
212.889600
 20
113.356105
 40
1.000000
 50
-90.000000
 51
0.000000
  0
LINE
  8
1
 62
7
  6
CONTINUOUS
 10
204.889600
 20
112.356105
 11
212.889600
 21
112.356105
  0
LINE
  8
1
 62
7
  6
CONTINUOUS
 10
213.889600
 20
113.356105
 11
213.889600
 21
114.856105
  0
LINE
  8
1
 62
7
  6
CONTINUOUS
 10
205.889600
 20
111.656104
 11
211.889600
 21
111.656104
  0
LINE
  8
1
 62
7
  6
CONTINUOUS
 10
205.889600
 20
111.656104
 11
205.889600
 21
112.356105
  0
LINE
  8
1
 62
7
  6
CONTINUOUS
 10
211.889600
 20
112.356105
 11
211.889600
 21
111.656104
  0
LINE
  8
1
 62
7
  6
CONTINUOUS
 10
195.889601
 20
126.756101
 11
195.889601
 21
127.656103
  0
LINE
  8
1
 62
7
  6
CONTINUOUS
 10
221.889599
 20
127.656103
 11
221.889599
 21
126.756101
  0
LINE
  8
1
 62
7
  6
CONTINUOUS
 10
195.889601
 20
126.756101
 11
198.889601
 21
126.756101
  0
LINE
  8
1
 62
7
  6
CONTINUOUS
 10
221.889599
 20
126.756101
 11
218.889599
 21
126.756101
  0
LINE
  8
2
 62
7
  6
DASHDOT
 10
191.410600
 20
93.356104
 11
225.853600
 21
93.356104
  0
CIRCLE
  8
2
 62
7
  6
CONTINUOUS
 10
208.889600
 20
93.356104
 40
10.477500
  0
LINE
  8
2
 62
7
  6
DASHDOT
 10
163.889600
 20
125.386004
 11
163.889600
 21
110.587404
  0
LINE
  8
2
 62
7
  6
DASHDOT
 10
253.889600
 20
125.507004
 11
253.889600
 21
110.091005
  0
LINE
  8
2
 62
7
  6
DASHDOT
 10
177.069795
 20
125.386004
 11
177.069795
 21
117.356104
  0
LINE
  8
2
 62
7
  6
DASHDOT
 10
240.709405
 20
125.507004
 11
240.709405
 21
118.309307
  0
LINE
  8
2
 62
7
  6
DASHDOT
 10
195.752599
 20
150.656103
 11
222.185599
 21
150.656103
  0
LINE
  8
2
 62
7
  6
CONTINUOUS
 10
182.829099
 20
126.456102
 11
182.829099
 21
127.656103
  0
LINE
  8
2
 62
7
  6
CONTINUOUS
 10
184.950101
 20
127.656103
 11
184.950101
 21
126.456102
  0
LINE
  8
2
 62
7
  6
DASHDOT
 10
183.889600
 20
128.126004
 11
183.889600
 21
126.056103
  0
LINE
  8
2
 62
7
  6
CONTINUOUS
 10
232.829099
 20
127.656103
 11
232.829099
 21
126.456102
  0
LINE
  8
2
 62
7
  6
CONTINUOUS
 10
234.950101
 20
126.456102
 11
234.950101
 21
127.656103
  0
LINE
  8
2
 62
7
  6
DASHDOT
 10
233.889600
 20
128.126004
 11
233.889600
 21
126.056103
  0
LINE
  8
2
 62
7
  6
DASHDOT
 10
239.889600
 20
286.268005
 11
246.931101
 21
293.309506
  0
LINE
  8
2
 62
7
  6
DASHDOT
 10
177.889600
 20
286.268005
 11
169.470097
 21
294.687507
  0
LINE
  8
2
 62
7
  6
DASHDOT
 10
177.889600
 20
224.268005
 11
170.394601
 21
216.773006
  0
LINE
  8
2
 62
7
  6
DASHDOT
 10
239.889600
 20
224.268005
 11
247.868597
 21
216.289008
  0
ARC
  8
2
 62
7
  6
DASHDOT
 10
208.889600
 20
255.268005
 40
45.000000
 50
58.821161
 51
121.178839
  0
ARC
  8
2
 62
7
  6
DASHDOT
 10
208.889600
 20
255.268005
 40
45.000000
 50
-45.000000
 51
45.000000
  0
ARC
  8
2
 62
7
  6
DASHDOT
 10
208.889600
 20
255.268005
 40
45.000000
 50
135.000000
 51
-135.000000
  0
ARC
  8
2
 62
7
  6
DASHDOT
 10
208.889600
 20
255.268005
 40
45.000000
 50
-121.178839
 51
-58.821161
  0
LINE
  8
2
 62
7
  6
DASHDOT
 10
208.889600
 20
170.927007
 11
208.889600
 21
64.371004
  0
LINE
  8
2
 62
7
  6
CONTINUOUS
 10
206.431100
 20
111.656104
 11
206.431100
 21
112.356105
  0
LINE
  8
2
 62
7
  6
CONTINUOUS
 10
211.348100
 20
112.356105
 11
211.348100
 21
111.656104
  0
LINE
  8
1
 62
7
  6
CONTINUOUS
 10
209.625927
 20
237.520892
 11
209.625927
 21
236.784564
  0
LINE
  8
5
 62
7
  6
CONTINUOUS
 10
213.009359
 20
238.964257
 11
213.739057
 21
238.964257
  0
LINE
  8
5
 62
7
  6
CONTINUOUS
 10
211.135650
 20
238.964257
 11
211.941472
 21
238.964257
  0
LINE
  8
5
 62
7
  6
CONTINUOUS
 10
214.269806
 20
238.964257
 11
214.755109
 21
238.964257
  0
LINE
  8
5
 62
7
  6
CONTINUOUS
 10
206.630418
 20
238.964257
 11
207.182662
 21
238.964257
  0
LINE
  8
5
 62
7
  6
CONTINUOUS
 10
215.014379
 20
238.964257
 11
215.750976
 21
238.964257
  0
LINE
  8
5
 62
7
  6
CONTINUOUS
 10
204.291162
 20
238.964257
 11
206.203683
 21
238.964257
  0
LINE
  8
5
 62
7
  6
CONTINUOUS
 10
217.001821
 20
238.964257
 11
217.680107
 21
238.964257
  0
LINE
  8
5
 62
7
  6
CONTINUOUS
 10
203.003175
 20
238.964257
 11
203.480112
 21
238.964257
  0
LINE
  8
5
 62
7
  6
CONTINUOUS
 10
218.417454
 20
238.964257
 11
218.868244
 21
238.964257
  0
LINE
  8
5
 62
7
  6
CONTINUOUS
 10
200.318885
 20
238.964257
 11
202.284546
 21
238.964257
  0
LINE
  8
5
 62
7
  6
CONTINUOUS
 10
212.865098
 20
238.827591
 11
213.879520
 21
238.827591
  0
LINE
  8
5
 62
7
  6
CONTINUOUS
 10
210.995189
 20
238.827591
 11
212.036380
 21
238.827591
  0
LINE
  8
5
 62
7
  6
CONTINUOUS
 10
214.269806
 20
238.827591
 11
214.755109
 21
238.827591
  0
LINE
  8
5
 62
7
  6
CONTINUOUS
 10
206.630418
 20
238.827591
 11
207.182662
 21
238.827591
  0
LINE
  8
5
 62
7
  6
CONTINUOUS
 10
215.122931
 20
238.827591
 11
215.861313
 21
238.827591
  0
LINE
  8
5
 62
7
  6
CONTINUOUS
 10
204.150700
 20
238.827591
 11
206.203683
 21
238.827591
  0
LINE
  8
5
 62
7
  6
CONTINUOUS
 10
216.920322
 20
238.827591
 11
217.602075
 21
238.827591
  0
LINE
  8
5
 62
7
  6
CONTINUOUS
 10
202.811842
 20
238.827591
 11
203.616777
 21
238.827591
  0
LINE
  8
5
 62
7
  6
CONTINUOUS
 10
218.190086
 20
238.827591
 11
219.008706
 21
238.827591
  0
LINE
  8
5
 62
7
  6
CONTINUOUS
 10
200.091217
 20
238.827591
 11
202.208855
 21
238.827591
  0
LINE
  8
5
 62
7
  6
CONTINUOUS
 10
212.720839
 20
238.690924
 11
214.019985
 21
238.690924
  0
LINE
  8
5
 62
7
  6
CONTINUOUS
 10
210.854725
 20
238.690924
 11
212.131287
 21
238.690924
  0
LINE
  8
5
 62
7
  6
CONTINUOUS
 10
214.269806
 20
238.690924
 11
214.755109
 21
238.690924
  0
LINE
  8
5
 62
7
  6
CONTINUOUS
 10
206.630418
 20
238.690924
 11
207.182662
 21
238.690924
  0
LINE
  8
5
 62
7
  6
CONTINUOUS
 10
215.231484
 20
238.690924
 11
215.971650
 21
238.690924
  0
LINE
  8
5
 62
7
  6
CONTINUOUS
 10
204.010237
 20
238.690924
 11
206.203683
 21
238.690924
  0
LINE
  8
5
 62
7
  6
CONTINUOUS
 10
216.838823
 20
238.690924
 11
217.524046
 21
238.690924
  0
LINE
  8
5
 62
7
  6
CONTINUOUS
 10
202.691608
 20
238.690924
 11
203.753445
 21
238.690924
  0
LINE
  8
5
 62
7
  6
CONTINUOUS
 10
218.111604
 20
238.690924
 11
219.149169
 21
238.690924
  0
LINE
  8
5
 62
7
  6
CONTINUOUS
 10
200.006893
 20
238.690924
 11
202.133161
 21
238.690924
  0
LINE
  8
5
 62
7
  6
CONTINUOUS
 10
212.691752
 20
238.554257
 11
214.027151
 21
238.554257
  0
LINE
  8
5
 62
7
  6
CONTINUOUS
 10
210.847558
 20
238.554257
 11
212.159829
 21
238.554257
  0
LINE
  8
5
 62
7
  6
CONTINUOUS
 10
214.269806
 20
238.554257
 11
214.755109
 21
238.554257
  0
LINE
  8
5
 62
7
  6
CONTINUOUS
 10
206.630418
 20
238.554257
 11
207.182662
 21
238.554257
  0
LINE
  8
5
 62
7
  6
CONTINUOUS
 10
215.340036
 20
238.554257
 11
216.081987
 21
238.554257
  0
LINE
  8
5
 62
7
  6
CONTINUOUS
 10
204.003070
 20
238.554257
 11
206.203683
 21
238.554257
  0
LINE
  8
5
 62
7
  6
CONTINUOUS
 10
216.757324
 20
238.554257
 11
217.446014
 21
238.554257
  0
LINE
  8
5
 62
7
  6
CONTINUOUS
 10
202.614502
 20
238.554257
 11
203.760418
 21
238.554257
  0
LINE
  8
5
 62
7
  6
CONTINUOUS
 10
218.033122
 20
238.554257
 11
219.156336
 21
238.554257
  0
LINE
  8
5
 62
7
  6
CONTINUOUS
 10
199.922565
 20
238.554257
 11
202.057470
 21
238.554257
  0
LINE
  8
5
 62
7
  6
CONTINUOUS
 10
212.668860
 20
238.417591
 11
213.292023
 21
238.417591
  0
LINE
  8
5
 62
7
  6
CONTINUOUS
 10
211.582336
 20
238.417591
 11
212.184804
 21
238.417591
  0
LINE
  8
5
 62
7
  6
CONTINUOUS
 10
213.533478
 20
238.417591
 11
214.027151
 21
238.417591
  0
LINE
  8
5
 62
7
  6
CONTINUOUS
 10
210.847558
 20
238.417591
 11
211.332865
 21
238.417591
  0
LINE
  8
5
 62
7
  6
CONTINUOUS
 10
214.269806
 20
238.417591
 11
214.755109
 21
238.417591
  0
LINE
  8
5
 62
7
  6
CONTINUOUS
 10
206.630418
 20
238.417591
 11
207.182662
 21
238.417591
  0
LINE
  8
5
 62
7
  6
CONTINUOUS
 10
215.448588
 20
238.417591
 11
216.192323
 21
238.417591
  0
LINE
  8
5
 62
7
  6
CONTINUOUS
 10
204.003070
 20
238.417591
 11
204.555317
 21
238.417591
  0
LINE
  8
5
 62
7
  6
CONTINUOUS
 10
216.675826
 20
238.417591
 11
217.367984
 21
238.417591
  0
LINE
  8
5
 62
7
  6
CONTINUOUS
 10
202.537398
 20
238.417591
 11
203.760418
 21
238.417591
  0
LINE
  8
5
 62
7
  6
CONTINUOUS
 10
217.954639
 20
238.417591
 11
219.156336
 21
238.417591
  0
LINE
  8
5
 62
7
  6
CONTINUOUS
 10
199.852866
 20
238.417591
 11
200.475615
 21
238.417591
  0
LINE
  8
5
 62
7
  6
CONTINUOUS
 10
212.645967
 20
238.280924
 11
213.266214
 21
238.280924
  0
LINE
  8
5
 62
7
  6
CONTINUOUS
 10
211.607560
 20
238.280924
 11
212.209779
 21
238.280924
  0
LINE
  8
5
 62
7
  6
CONTINUOUS
 10
213.533478
 20
238.280924
 11
214.027151
 21
238.280924
  0
LINE
  8
5
 62
7
  6
CONTINUOUS
 10
210.847558
 20
238.280924
 11
211.332865
 21
238.280924
  0
LINE
  8
5
 62
7
  6
CONTINUOUS
 10
214.269806
 20
238.280924
 11
214.755109
 21
238.280924
  0
LINE
  8
5
 62
7
  6
CONTINUOUS
 10
206.630418
 20
238.280924
 11
207.182662
 21
238.280924
  0
LINE
  8
5
 62
7
  6
CONTINUOUS
 10
215.557142
 20
238.280924
 11
216.302660
 21
238.280924
  0
LINE
  8
5
 62
7
  6
CONTINUOUS
 10
204.003070
 20
238.280924
 11
204.555317
 21
238.280924
  0
LINE
  8
5
 62
7
  6
CONTINUOUS
 10
216.594327
 20
238.280924
 11
217.289953
 21
238.280924
  0
LINE
  8
5
 62
7
  6
CONTINUOUS
 10
202.460290
 20
238.280924
 11
203.760418
 21
238.280924
  0
LINE
  8
5
 62
7
  6
CONTINUOUS
 10
217.876159
 20
238.280924
 11
219.156336
 21
238.280924
  0
LINE
  8
5
 62
7
  6
CONTINUOUS
 10
199.852866
 20
238.280924
 11
200.411177
 21
238.280924
  0
LINE
  8
5
 62
7
  6
CONTINUOUS
 10
212.623072
 20
238.144258
 11
213.240405
 21
238.144258
  0
LINE
  8
5
 62
7
  6
CONTINUOUS
 10
211.632780
 20
238.144258
 11
212.234754
 21
238.144258
  0
LINE
  8
5
 62
7
  6
CONTINUOUS
 10
213.533478
 20
238.144258
 11
214.027151
 21
238.144258
  0
LINE
  8
5
 62
7
  6
CONTINUOUS
 10
210.847558
 20
238.144258
 11
211.332865
 21
238.144258
  0
LINE
  8
5
 62
7
  6
CONTINUOUS
 10
214.269806
 20
238.144258
 11
214.755109
 21
238.144258
  0
LINE
  8
5
 62
7
  6
CONTINUOUS
 10
206.630418
 20
238.144258
 11
207.182662
 21
238.144258
  0
LINE
  8
5
 62
7
  6
CONTINUOUS
 10
215.665694
 20
238.144258
 11
216.412995
 21
238.144258
  0
LINE
  8
5
 62
7
  6
CONTINUOUS
 10
204.003070
 20
238.144258
 11
204.555317
 21
238.144258
  0
LINE
  8
5
 62
7
  6
CONTINUOUS
 10
216.512828
 20
238.144258
 11
217.211921
 21
238.144258
  0
LINE
  8
5
 62
7
  6
CONTINUOUS
 10
203.216539
 20
238.144258
 11
203.760418
 21
238.144258
  0
LINE
  8
5
 62
7
  6
CONTINUOUS
 10
217.797677
 20
238.144258
 11
218.479867
 21
238.144258
  0
LINE
  8
5
 62
7
  6
CONTINUOUS
 10
202.383184
 20
238.144258
 11
203.084433
 21
238.144258
  0
LINE
  8
5
 62
7
  6
CONTINUOUS
 10
218.604089
 20
238.144258
 11
219.156336
 21
238.144258
  0
LINE
  8
5
 62
7
  6
CONTINUOUS
 10
199.852866
 20
238.144258
 11
200.496077
 21
238.144258
  0
LINE
  8
5
 62
7
  6
CONTINUOUS
 10
211.658000
 20
238.007591
 11
212.259729
 21
238.007591
  0
LINE
  8
5
 62
7
  6
CONTINUOUS
 10
212.600179
 20
238.007591
 11
213.214598
 21
238.007591
  0
LINE
  8
5
 62
7
  6
CONTINUOUS
 10
210.847558
 20
238.007591
 11
211.332865
 21
238.007591
  0
LINE
  8
5
 62
7
  6
CONTINUOUS
 10
213.533478
 20
238.007591
 11
214.027151
 21
238.007591
  0
LINE
  8
5
 62
7
  6
CONTINUOUS
 10
206.630418
 20
238.007591
 11
207.182662
 21
238.007591
  0
LINE
  8
5
 62
7
  6
CONTINUOUS
 10
214.269806
 20
238.007591
 11
214.755109
 21
238.007591
  0
LINE
  8
5
 62
7
  6
CONTINUOUS
 10
204.003070
 20
238.007591
 11
204.555317
 21
238.007591
  0
LINE
  8
5
 62
7
  6
CONTINUOUS
 10
215.774244
 20
238.007591
 11
217.133891
 21
238.007591
  0
LINE
  8
5
 62
7
  6
CONTINUOUS
 10
203.216539
 20
238.007591
 11
203.760418
 21
238.007591
  0
LINE
  8
5
 62
7
  6
CONTINUOUS
 10
217.719195
 20
238.007591
 11
218.400437
 21
238.007591
  0
LINE
  8
5
 62
7
  6
CONTINUOUS
 10
202.306080
 20
238.007591
 11
203.005587
 21
238.007591
  0
LINE
  8
5
 62
7
  6
CONTINUOUS
 10
218.604089
 20
238.007591
 11
219.156336
 21
238.007591
  0
LINE
  8
5
 62
7
  6
CONTINUOUS
 10
199.925657
 20
238.007591
 11
200.580974
 21
238.007591
  0
LINE
  8
5
 62
7
  6
CONTINUOUS
 10
210.847558
 20
237.870923
 11
211.332865
 21
237.870923
  0
LINE
  8
5
 62
7
  6
CONTINUOUS
 10
209.306573
 20
237.870923
 11
210.434342
 21
237.870923
  0
LINE
  8
5
 62
7
  6
CONTINUOUS
 10
211.683224
 20
237.870923
 11
212.284703
 21
237.870923
  0
LINE
  8
5
 62
7
  6
CONTINUOUS
 10
208.084942
 20
237.870923
 11
208.723648
 21
237.870923
  0
LINE
  8
5
 62
7
  6
CONTINUOUS
 10
212.577285
 20
237.870923
 11
213.188789
 21
237.870923
  0
LINE
  8
5
 62
7
  6
CONTINUOUS
 10
207.425314
 20
237.870923
 11
207.918989
 21
237.870923
  0
LINE
  8
5
 62
7
  6
CONTINUOUS
 10
213.533478
 20
237.870923
 11
214.027151
 21
237.870923
  0
LINE
  8
5
 62
7
  6
CONTINUOUS
 10
206.630418
 20
237.870923
 11
207.182662
 21
237.870923
  0
LINE
  8
5
 62
7
  6
CONTINUOUS
 10
214.269806
 20
237.870923
 11
214.755109
 21
237.870923
  0
LINE
  8
5
 62
7
  6
CONTINUOUS
 10
204.003070
 20
237.870923
 11
204.555317
 21
237.870923
  0
LINE
  8
5
 62
7
  6
CONTINUOUS
 10
215.882797
 20
237.870923
 11
217.055860
 21
237.870923
  0
LINE
  8
5
 62
7
  6
CONTINUOUS
 10
203.216539
 20
237.870923
 11
203.760418
 21
237.870923
  0
LINE
  8
5
 62
7
  6
CONTINUOUS
 10
217.640713
 20
237.870923
 11
218.321005
 21
237.870923
  0
LINE
  8
5
 62
7
  6
CONTINUOUS
 10
202.228974
 20
237.870923
 11
202.926740
 21
237.870923
  0
LINE
  8
5
 62
7
  6
CONTINUOUS
 10
218.604089
 20
237.870923
 11
219.156336
 21
237.870923
  0
LINE
  8
5
 62
7
  6
CONTINUOUS
 10
200.005807
 20
237.870923
 11
200.665875
 21
237.870923
  0
LINE
  8
5
 62
7
  6
CONTINUOUS
 10
209.169904
 20
237.734258
 11
210.574807
 21
237.734258
  0
LINE
  8
5
 62
7
  6
CONTINUOUS
 10
210.847558
 20
237.734258
 11
211.332865
 21
237.734258
  0
LINE
  8
5
 62
7
  6
CONTINUOUS
 10
207.948273
 20
237.734258
 11
208.860314
 21
237.734258
  0
LINE
  8
5
 62
7
  6
CONTINUOUS
 10
211.708446
 20
237.734258
 11
212.309678
 21
237.734258
  0
LINE
  8
5
 62
7
  6
CONTINUOUS
 10
207.425314
 20
237.734258
 11
207.918989
 21
237.734258
  0
LINE
  8
5
 62
7
  6
CONTINUOUS
 10
212.554393
 20
237.734258
 11
213.162980
 21
237.734258
  0
LINE
  8
5
 62
7
  6
CONTINUOUS
 10
206.630418
 20
237.734258
 11
207.182662
 21
237.734258
  0
LINE
  8
5
 62
7
  6
CONTINUOUS
 10
213.533478
 20
237.734258
 11
214.027151
 21
237.734258
  0
LINE
  8
5
 62
7
  6
CONTINUOUS
 10
205.224704
 20
237.734258
 11
205.897438
 21
237.734258
  0
LINE
  8
5
 62
7
  6
CONTINUOUS
 10
214.269806
 20
237.734258
 11
214.755109
 21
237.734258
  0
LINE
  8
5
 62
7
  6
CONTINUOUS
 10
204.003070
 20
237.734258
 11
204.555317
 21
237.734258
  0
LINE
  8
5
 62
7
  6
CONTINUOUS
 10
215.991350
 20
237.734258
 11
216.977829
 21
237.734258
  0
LINE
  8
5
 62
7
  6
CONTINUOUS
 10
203.216539
 20
237.734258
 11
203.760418
 21
237.734258
  0
LINE
  8
5
 62
7
  6
CONTINUOUS
 10
217.562231
 20
237.734258
 11
218.241575
 21
237.734258
  0
LINE
  8
5
 62
7
  6
CONTINUOUS
 10
202.151866
 20
237.734258
 11
202.847894
 21
237.734258
  0
LINE
  8
5
 62
7
  6
CONTINUOUS
 10
218.604089
 20
237.734258
 11
219.156336
 21
237.734258
  0
LINE
  8
5
 62
7
  6
CONTINUOUS
 10
200.085957
 20
237.734258
 11
200.750772
 21
237.734258
  0
LINE
  8
5
 62
7
  6
CONTINUOUS
 10
210.847558
 20
237.597590
 11
211.332865
 21
237.597590
  0
LINE
  8
5
 62
7
  6
CONTINUOUS
 10
209.140620
 20
237.597590
 11
210.604906
 21
237.597590
  0
LINE
  8
5
 62
7
  6
CONTINUOUS
 10
211.733666
 20
237.597590
 11
212.334654
 21
237.597590
  0
LINE
  8
5
 62
7
  6
CONTINUOUS
 10
207.425314
 20
237.597590
 11
208.889600
 21
237.597590
  0
LINE
  8
5
 62
7
  6
CONTINUOUS
 10
212.531499
 20
237.597590
 11
213.137172
 21
237.597590
  0
LINE
  8
5
 62
7
  6
CONTINUOUS
 10
206.630418
 20
237.597590
 11
207.182662
 21
237.597590
  0
LINE
  8
5
 62
7
  6
CONTINUOUS
 10
213.533478
 20
237.597590
 11
214.027151
 21
237.597590
  0
LINE
  8
5
 62
7
  6
CONTINUOUS
 10
205.224704
 20
237.597590
 11
205.952103
 21
237.597590
  0
LINE
  8
5
 62
7
  6
CONTINUOUS
 10
214.269806
 20
237.597590
 11
214.755109
 21
237.597590
  0
LINE
  8
5
 62
7
  6
CONTINUOUS
 10
204.003070
 20
237.597590
 11
204.555317
 21
237.597590
  0
LINE
  8
5
 62
7
  6
CONTINUOUS
 10
216.099904
 20
237.597590
 11
216.899797
 21
237.597590
  0
LINE
  8
5
 62
7
  6
CONTINUOUS
 10
203.216539
 20
237.597590
 11
203.760418
 21
237.597590
  0
LINE
  8
5
 62
7
  6
CONTINUOUS
 10
217.483750
 20
237.597590
 11
218.162145
 21
237.597590
  0
LINE
  8
5
 62
7
  6
CONTINUOUS
 10
202.074761
 20
237.597590
 11
202.769048
 21
237.597590
  0
LINE
  8
5
 62
7
  6
CONTINUOUS
 10
218.604089
 20
237.597590
 11
219.156336
 21
237.597590
  0
LINE
  8
5
 62
7
  6
CONTINUOUS
 10
200.166107
 20
237.597590
 11
200.835672
 21
237.597590
  0
LINE
  8
5
 62
7
  6
CONTINUOUS
 10
210.111234
 20
237.460925
 11
210.604906
 21
237.460925
  0
LINE
  8
5
 62
7
  6
CONTINUOUS
 10
209.140620
 20
237.460925
 11
209.625927
 21
237.460925
  0
LINE
  8
5
 62
7
  6
CONTINUOUS
 10
210.847558
 20
237.460925
 11
211.332865
 21
237.460925
  0
LINE
  8
5
 62
7
  6
CONTINUOUS
 10
208.412661
 20
237.460925
 11
208.889600
 21
237.460925
  0
LINE
  8
5
 62
7
  6
CONTINUOUS
 10
211.758888
 20
237.460925
 11
212.359629
 21
237.460925
  0
LINE
  8
5
 62
7
  6
CONTINUOUS
 10
207.425314
 20
237.460925
 11
207.918989
 21
237.460925
  0
LINE
  8
5
 62
7
  6
CONTINUOUS
 10
212.508605
 20
237.460925
 11
213.111365
 21
237.460925
  0
LINE
  8
5
 62
7
  6
CONTINUOUS
 10
206.630418
 20
237.460925
 11
207.182662
 21
237.460925
  0
LINE
  8
5
 62
7
  6
CONTINUOUS
 10
213.533478
 20
237.460925
 11
214.027151
 21
237.460925
  0
LINE
  8
5
 62
7
  6
CONTINUOUS
 10
205.224704
 20
237.460925
 11
206.006770
 21
237.460925
  0
LINE
  8
5
 62
7
  6
CONTINUOUS
 10
214.269806
 20
237.460925
 11
214.755109
 21
237.460925
  0
LINE
  8
5
 62
7
  6
CONTINUOUS
 10
204.003070
 20
237.460925
 11
204.555317
 21
237.460925
  0
LINE
  8
5
 62
7
  6
CONTINUOUS
 10
216.128797
 20
237.460925
 11
216.821766
 21
237.460925
  0
LINE
  8
5
 62
7
  6
CONTINUOUS
 10
203.216539
 20
237.460925
 11
203.760418
 21
237.460925
  0
LINE
  8
5
 62
7
  6
CONTINUOUS
 10
217.405268
 20
237.460925
 11
218.082716
 21
237.460925
  0
LINE
  8
5
 62
7
  6
CONTINUOUS
 10
201.997655
 20
237.460925
 11
202.690202
 21
237.460925
  0
LINE
  8
5
 62
7
  6
CONTINUOUS
 10
218.604089
 20
237.460925
 11
219.156336
 21
237.460925
  0
LINE
  8
5
 62
7
  6
CONTINUOUS
 10
200.246258
 20
237.460925
 11
200.920569
 21
237.460925
  0
LINE
  8
5
 62
7
  6
CONTINUOUS
 10
210.111234
 20
237.324257
 11
210.604906
 21
237.324257
  0
LINE
  8
5
 62
7
  6
CONTINUOUS
 10
209.140620
 20
237.324257
 11
209.625927
 21
237.324257
  0
LINE
  8
5
 62
7
  6
CONTINUOUS
 10
210.847558
 20
237.324257
 11
211.332865
 21
237.324257
  0
LINE
  8
5
 62
7
  6
CONTINUOUS
 10
208.412661
 20
237.324257
 11
208.889600
 21
237.324257
  0
LINE
  8
5
 62
7
  6
CONTINUOUS
 10
211.784110
 20
237.324257
 11
212.384603
 21
237.324257
  0
LINE
  8
5
 62
7
  6
CONTINUOUS
 10
207.425314
 20
237.324257
 11
207.918989
 21
237.324257
  0
LINE
  8
5
 62
7
  6
CONTINUOUS
 10
212.485712
 20
237.324257
 11
213.085556
 21
237.324257
  0
LINE
  8
5
 62
7
  6
CONTINUOUS
 10
206.630418
 20
237.324257
 11
207.182662
 21
237.324257
  0
LINE
  8
5
 62
7
  6
CONTINUOUS
 10
213.533478
 20
237.324257
 11
214.027151
 21
237.324257
  0
LINE
  8
5
 62
7
  6
CONTINUOUS
 10
205.224704
 20
237.324257
 11
206.061438
 21
237.324257
  0
LINE
  8
5
 62
7
  6
CONTINUOUS
 10
214.269806
 20
237.324257
 11
214.755109
 21
237.324257
  0
LINE
  8
5
 62
7
  6
CONTINUOUS
 10
204.003070
 20
237.324257
 11
204.555317
 21
237.324257
  0
LINE
  8
5
 62
7
  6
CONTINUOUS
 10
216.055803
 20
237.324257
 11
216.743734
 21
237.324257
  0
LINE
  8
5
 62
7
  6
CONTINUOUS
 10
203.216539
 20
237.324257
 11
203.760418
 21
237.324257
  0
LINE
  8
5
 62
7
  6
CONTINUOUS
 10
217.326786
 20
237.324257
 11
218.003286
 21
237.324257
  0
LINE
  8
5
 62
7
  6
CONTINUOUS
 10
201.920549
 20
237.324257
 11
202.611356
 21
237.324257
  0
LINE
  8
5
 62
7
  6
CONTINUOUS
 10
218.604089
 20
237.324257
 11
219.156336
 21
237.324257
  0
LINE
  8
5
 62
7
  6
CONTINUOUS
 10
200.326408
 20
237.324257
 11
201.005469
 21
237.324257
  0
LINE
  8
5
 62
7
  6
CONTINUOUS
 10
210.111234
 20
237.187590
 11
210.604906
 21
237.187590
  0
LINE
  8
5
 62
7
  6
CONTINUOUS
 10
209.140620
 20
237.187590
 11
209.625927
 21
237.187590
  0
LINE
  8
5
 62
7
  6
CONTINUOUS
 10
210.847558
 20
237.187590
 11
211.332865
 21
237.187590
  0
LINE
  8
5
 62
7
  6
CONTINUOUS
 10
208.412661
 20
237.187590
 11
208.889600
 21
237.187590
  0
LINE
  8
5
 62
7
  6
CONTINUOUS
 10
211.809331
 20
237.187590
 11
212.409578
 21
237.187590
  0
LINE
  8
5
 62
7
  6
CONTINUOUS
 10
207.425314
 20
237.187590
 11
207.918989
 21
237.187590
  0
LINE
  8
5
 62
7
  6
CONTINUOUS
 10
212.462820
 20
237.187590
 11
213.059747
 21
237.187590
  0
LINE
  8
5
 62
7
  6
CONTINUOUS
 10
206.630418
 20
237.187590
 11
207.182662
 21
237.187590
  0
LINE
  8
5
 62
7
  6
CONTINUOUS
 10
213.533478
 20
237.187590
 11
214.027151
 21
237.187590
  0
LINE
  8
5
 62
7
  6
CONTINUOUS
 10
205.529954
 20
237.187590
 11
206.116104
 21
237.187590
  0
LINE
  8
5
 62
7
  6
CONTINUOUS
 10
214.269806
 20
237.187590
 11
214.755109
 21
237.187590
  0
LINE
  8
5
 62
7
  6
CONTINUOUS
 10
204.003070
 20
237.187590
 11
204.555317
 21
237.187590
  0
LINE
  8
5
 62
7
  6
CONTINUOUS
 10
215.982812
 20
237.187590
 11
216.665704
 21
237.187590
  0
LINE
  8
5
 62
7
  6
CONTINUOUS
 10
203.216539
 20
237.187590
 11
203.760418
 21
237.187590
  0
LINE
  8
5
 62
7
  6
CONTINUOUS
 10
217.248304
 20
237.187590
 11
217.923854
 21
237.187590
  0
LINE
  8
5
 62
7
  6
CONTINUOUS
 10
201.843441
 20
237.187590
 11
202.532510
 21
237.187590
  0
LINE
  8
5
 62
7
  6
CONTINUOUS
 10
218.604089
 20
237.187590
 11
219.156336
 21
237.187590
  0
LINE
  8
5
 62
7
  6
CONTINUOUS
 10
200.406557
 20
237.187590
 11
201.090366
 21
237.187590
  0
LINE
  8
5
 62
7
  6
CONTINUOUS
 10
210.111234
 20
237.050924
 11
210.604906
 21
237.050924
  0
LINE
  8
5
 62
7
  6
CONTINUOUS
 10
209.140620
 20
237.050924
 11
209.625927
 21
237.050924
  0
LINE
  8
5
 62
7
  6
CONTINUOUS
 10
210.847558
 20
237.050924
 11
211.332865
 21
237.050924
  0
LINE
  8
5
 62
7
  6
CONTINUOUS
 10
208.412661
 20
237.050924
 11
208.889600
 21
237.050924
  0
LINE
  8
5
 62
7
  6
CONTINUOUS
 10
211.834553
 20
237.050924
 11
212.434553
 21
237.050924
  0
LINE
  8
5
 62
7
  6
CONTINUOUS
 10
207.425314
 20
237.050924
 11
207.918989
 21
237.050924
  0
LINE
  8
5
 62
7
  6
CONTINUOUS
 10
212.439925
 20
237.050924
 11
213.033938
 21
237.050924
  0
LINE
  8
5
 62
7
  6
CONTINUOUS
 10
206.630418
 20
237.050924
 11
207.182662
 21
237.050924
  0
LINE
  8
5
 62
7
  6
CONTINUOUS
 10
213.533478
 20
237.050924
 11
214.027151
 21
237.050924
  0
LINE
  8
5
 62
7
  6
CONTINUOUS
 10
205.582757
 20
237.050924
 11
206.170769
 21
237.050924
  0
LINE
  8
5
 62
7
  6
CONTINUOUS
 10
214.269806
 20
237.050924
 11
214.755109
 21
237.050924
  0
LINE
  8
5
 62
7
  6
CONTINUOUS
 10
204.003070
 20
237.050924
 11
204.555317
 21
237.050924
  0
LINE
  8
5
 62
7
  6
CONTINUOUS
 10
215.909818
 20
237.050924
 11
216.587673
 21
237.050924
  0
LINE
  8
5
 62
7
  6
CONTINUOUS
 10
203.216539
 20
237.050924
 11
203.760418
 21
237.050924
  0
LINE
  8
5
 62
7
  6
CONTINUOUS
 10
217.169822
 20
237.050924
 11
217.844424
 21
237.050924
  0
LINE
  8
5
 62
7
  6
CONTINUOUS
 10
201.766337
 20
237.050924
 11
202.453664
 21
237.050924
  0
LINE
  8
5
 62
7
  6
CONTINUOUS
 10
218.604089
 20
237.050924
 11
219.156336
 21
237.050924
  0
LINE
  8
5
 62
7
  6
CONTINUOUS
 10
200.486708
 20
237.050924
 11
201.082781
 21
237.050924
  0
LINE
  8
5
 62
7
  6
CONTINUOUS
 10
209.140620
 20
236.914257
 11
209.625927
 21
236.914257
  0
LINE
  8
5
 62
7
  6
CONTINUOUS
 10
210.111234
 20
236.914257
 11
210.604906
 21
236.914257
  0
LINE
  8
5
 62
7
  6
CONTINUOUS
 10
208.412661
 20
236.914257
 11
208.889600
 21
236.914257
  0
LINE
  8
5
 62
7
  6
CONTINUOUS
 10
210.847558
 20
236.914257
 11
211.332865
 21
236.914257
  0
LINE
  8
5
 62
7
  6
CONTINUOUS
 10
207.425314
 20
236.914257
 11
207.918989
 21
236.914257
  0
LINE
  8
5
 62
7
  6
CONTINUOUS
 10
211.859776
 20
236.914257
 11
213.008129
 21
236.914257
  0
LINE
  8
5
 62
7
  6
CONTINUOUS
 10
206.630418
 20
236.914257
 11
207.182662
 21
236.914257
  0
LINE
  8
5
 62
7
  6
CONTINUOUS
 10
213.533478
 20
236.914257
 11
214.027151
 21
236.914257
  0
LINE
  8
5
 62
7
  6
CONTINUOUS
 10
205.635562
 20
236.914257
 11
206.225436
 21
236.914257
  0
LINE
  8
5
 62
7
  6
CONTINUOUS
 10
214.269806
 20
236.914257
 11
214.755109
 21
236.914257
  0
LINE
  8
5
 62
7
  6
CONTINUOUS
 10
204.003070
 20
236.914257
 11
204.555317
 21
236.914257
  0
LINE
  8
5
 62
7
  6
CONTINUOUS
 10
215.836827
 20
236.914257
 11
216.509643
 21
236.914257
  0
LINE
  8
5
 62
7
  6
CONTINUOUS
 10
203.216539
 20
236.914257
 11
203.760418
 21
236.914257
  0
LINE
  8
5
 62
7
  6
CONTINUOUS
 10
217.091341
 20
236.914257
 11
217.764994
 21
236.914257
  0
LINE
  8
5
 62
7
  6
CONTINUOUS
 10
201.689232
 20
236.914257
 11
202.374817
 21
236.914257
  0
LINE
  8
5
 62
7
  6
CONTINUOUS
 10
218.604089
 20
236.914257
 11
219.156336
 21
236.914257
  0
LINE
  8
5
 62
7
  6
CONTINUOUS
 10
200.447996
 20
236.914257
 11
201.072130
 21
236.914257
  0
LINE
  8
5
 62
7
  6
CONTINUOUS
 10
209.140620
 20
236.777591
 11
210.604906
 21
236.777591
  0
LINE
  8
5
 62
7
  6
CONTINUOUS
 10
210.847558
 20
236.777591
 11
211.332865
 21
236.777591
  0
LINE
  8
5
 62
7
  6
CONTINUOUS
 10
208.412661
 20
236.777591
 11
208.889600
 21
236.777591
  0
LINE
  8
5
 62
7
  6
CONTINUOUS
 10
211.884997
 20
236.777591
 11
212.982322
 21
236.777591
  0
LINE
  8
5
 62
7
  6
CONTINUOUS
 10
207.425314
 20
236.777591
 11
207.918989
 21
236.777591
  0
LINE
  8
5
 62
7
  6
CONTINUOUS
 10
213.533478
 20
236.777591
 11
214.027151
 21
236.777591
  0
LINE
  8
5
 62
7
  6
CONTINUOUS
 10
206.630418
 20
236.777591
 11
207.182662
 21
236.777591
  0
LINE
  8
5
 62
7
  6
CONTINUOUS
 10
214.269806
 20
236.777591
 11
214.755109
 21
236.777591
  0
LINE
  8
5
 62
7
  6
CONTINUOUS
 10
204.003070
 20
236.777591
 11
206.280104
 21
236.777591
  0
LINE
  8
5
 62
7
  6
CONTINUOUS
 10
214.997764
 20
236.777591
 11
216.431612
 21
236.777591
  0
LINE
  8
5
 62
7
  6
CONTINUOUS
 10
202.781439
 20
236.777591
 11
203.760418
 21
236.777591
  0
LINE
  8
5
 62
7
  6
CONTINUOUS
 10
217.012859
 20
236.777591
 11
217.685564
 21
236.777591
  0
LINE
  8
5
 62
7
  6
CONTINUOUS
 10
201.612125
 20
236.777591
 11
202.295971
 21
236.777591
  0
LINE
  8
5
 62
7
  6
CONTINUOUS
 10
218.177357
 20
236.777591
 11
219.156336
 21
236.777591
  0
LINE
  8
5
 62
7
  6
CONTINUOUS
 10
198.953486
 20
236.777591
 11
200.994686
 21
236.777591
  0
LINE
  8
5
 62
7
  6
CONTINUOUS
 10
209.140620
 20
236.640924
 11
210.604906
 21
236.640924
  0
LINE
  8
5
 62
7
  6
CONTINUOUS
 10
210.847558
 20
236.640924
 11
211.332865
 21
236.640924
  0
LINE
  8
5
 62
7
  6
CONTINUOUS
 10
208.412661
 20
236.640924
 11
208.889600
 21
236.640924
  0
LINE
  8
5
 62
7
  6
CONTINUOUS
 10
211.910217
 20
236.640924
 11
212.956515
 21
236.640924
  0
LINE
  8
5
 62
7
  6
CONTINUOUS
 10
207.425314
 20
236.640924
 11
207.918989
 21
236.640924
  0
LINE
  8
5
 62
7
  6
CONTINUOUS
 10
213.533478
 20
236.640924
 11
214.027151
 21
236.640924
  0
LINE
  8
5
 62
7
  6
CONTINUOUS
 10
206.630418
 20
236.640924
 11
207.182662
 21
236.640924
  0
LINE
  8
5
 62
7
  6
CONTINUOUS
 10
214.269806
 20
236.640924
 11
214.755109
 21
236.640924
  0
LINE
  8
5
 62
7
  6
CONTINUOUS
 10
204.003070
 20
236.640924
 11
206.251935
 21
236.640924
  0
LINE
  8
5
 62
7
  6
CONTINUOUS
 10
214.997764
 20
236.640924
 11
216.353580
 21
236.640924
  0
LINE
  8
5
 62
7
  6
CONTINUOUS
 10
202.781439
 20
236.640924
 11
203.760418
 21
236.640924
  0
LINE
  8
5
 62
7
  6
CONTINUOUS
 10
216.934377
 20
236.640924
 11
217.606134
 21
236.640924
  0
LINE
  8
5
 62
7
  6
CONTINUOUS
 10
201.535019
 20
236.640924
 11
202.217125
 21
236.640924
  0
LINE
  8
5
 62
7
  6
CONTINUOUS
 10
218.177357
 20
236.640924
 11
219.156336
 21
236.640924
  0
LINE
  8
5
 62
7
  6
CONTINUOUS
 10
198.868585
 20
236.640924
 11
200.917240
 21
236.640924
  0
LINE
  8
5
 62
7
  6
CONTINUOUS
 10
209.242385
 20
236.504257
 11
210.500314
 21
236.504257
  0
LINE
  8
5
 62
7
  6
CONTINUOUS
 10
210.847558
 20
236.504257
 11
211.332865
 21
236.504257
  0
LINE
  8
5
 62
7
  6
CONTINUOUS
 10
208.412661
 20
236.504257
 11
208.889600
 21
236.504257
  0
LINE
  8
5
 62
7
  6
CONTINUOUS
 10
211.982172
 20
236.504257
 11
212.884173
 21
236.504257
  0
LINE
  8
5
 62
7
  6
CONTINUOUS
 10
207.425314
 20
236.504257
 11
207.918989
 21
236.504257
  0
LINE
  8
5
 62
7
  6
CONTINUOUS
 10
213.533478
 20
236.504257
 11
214.027151
 21
236.504257
  0
LINE
  8
5
 62
7
  6
CONTINUOUS
 10
206.630418
 20
236.504257
 11
207.182662
 21
236.504257
  0
LINE
  8
5
 62
7
  6
CONTINUOUS
 10
214.269806
 20
236.504257
 11
214.755109
 21
236.504257
  0
LINE
  8
5
 62
7
  6
CONTINUOUS
 10
204.107662
 20
236.504257
 11
206.159003
 21
236.504257
  0
LINE
  8
5
 62
7
  6
CONTINUOUS
 10
214.997764
 20
236.504257
 11
216.275550
 21
236.504257
  0
LINE
  8
5
 62
7
  6
CONTINUOUS
 10
202.781439
 20
236.504257
 11
203.658654
 21
236.504257
  0
LINE
  8
5
 62
7
  6
CONTINUOUS
 10
216.855895
 20
236.504257
 11
217.526705
 21
236.504257
  0
LINE
  8
5
 62
7
  6
CONTINUOUS
 10
201.457914
 20
236.504257
 11
202.138279
 21
236.504257
  0
LINE
  8
5
 62
7
  6
CONTINUOUS
 10
218.177357
 20
236.504257
 11
219.051743
 21
236.504257
  0
LINE
  8
5
 62
7
  6
CONTINUOUS
 10
198.783685
 20
236.504257
 11
200.839797
 21
236.504257
  0
LINE
  8
5
 62
7
  6
CONTINUOUS
 10
209.375356
 20
236.367591
 11
210.363648
 21
236.367591
  0
LINE
  8
5
 62
7
  6
CONTINUOUS
 10
210.847558
 20
236.367591
 11
211.332865
 21
236.367591
  0
LINE
  8
5
 62
7
  6
CONTINUOUS
 10
208.412661
 20
236.367591
 11
208.889600
 21
236.367591
  0
LINE
  8
5
 62
7
  6
CONTINUOUS
 10
212.146172
 20
236.367591
 11
212.720173
 21
236.367591
  0
LINE
  8
5
 62
7
  6
CONTINUOUS
 10
207.425314
 20
236.367591
 11
207.918989
 21
236.367591
  0
LINE
  8
5
 62
7
  6
CONTINUOUS
 10
213.533478
 20
236.367591
 11
214.027151
 21
236.367591
  0
LINE
  8
5
 62
7
  6
CONTINUOUS
 10
206.630418
 20
236.367591
 11
207.182662
 21
236.367591
  0
LINE
  8
5
 62
7
  6
CONTINUOUS
 10
214.269806
 20
236.367591
 11
214.755109
 21
236.367591
  0
LINE
  8
5
 62
7
  6
CONTINUOUS
 10
204.244328
 20
236.367591
 11
206.066069
 21
236.367591
  0
LINE
  8
5
 62
7
  6
CONTINUOUS
 10
214.997764
 20
236.367591
 11
216.098223
 21
236.367591
  0
LINE
  8
5
 62
7
  6
CONTINUOUS
 10
202.781439
 20
236.367591
 11
203.525680
 21
236.367591
  0
LINE
  8
5
 62
7
  6
CONTINUOUS
 10
216.777413
 20
236.367591
 11
217.447275
 21
236.367591
  0
LINE
  8
5
 62
7
  6
CONTINUOUS
 10
201.380808
 20
236.367591
 11
202.059433
 21
236.367591
  0
LINE
  8
5
 62
7
  6
CONTINUOUS
 10
218.177357
 20
236.367591
 11
218.915078
 21
236.367591
  0
LINE
  8
5
 62
7
  6
CONTINUOUS
 10
198.698788
 20
236.367591
 11
200.688904
 21
236.367591
  0
LINE
  8
5
 62
7
  6
CONTINUOUS
 10
218.846744
 20
238.985174
 11
218.453479
 21
238.985174
  0
LINE
  8
5
 62
7
  6
CONTINUOUS
 10
219.156336
 20
238.683951
 11
218.846744
 21
238.985174
  0
LINE
  8
5
 62
7
  6
CONTINUOUS
 10
219.156336
 20
236.608849
 11
219.156336
 21
238.683951
  0
LINE
  8
5
 62
7
  6
CONTINUOUS
 10
218.846744
 20
236.299257
 11
219.156336
 21
236.608849
  0
LINE
  8
5
 62
7
  6
CONTINUOUS
 10
218.177357
 20
236.299257
 11
218.846744
 21
236.299257
  0
LINE
  8
5
 62
7
  6
CONTINUOUS
 10
218.177357
 20
236.851501
 11
218.177357
 21
236.299257
  0
LINE
  8
5
 62
7
  6
CONTINUOUS
 10
218.604089
 20
236.851501
 11
218.177357
 21
236.851501
  0
LINE
  8
5
 62
7
  6
CONTINUOUS
 10
218.604089
 20
238.257216
 11
218.604089
 21
236.851501
  0
LINE
  8
5
 62
7
  6
CONTINUOUS
 10
218.545517
 20
238.257216
 11
218.604089
 21
238.257216
  0
LINE
  8
5
 62
7
  6
CONTINUOUS
 10
217.407560
 20
236.299257
 11
218.545517
 21
238.257216
  0
LINE
  8
5
 62
7
  6
CONTINUOUS
 10
216.738172
 20
236.299257
 11
217.407560
 21
236.299257
  0
LINE
  8
5
 62
7
  6
CONTINUOUS
 10
218.194090
 20
238.834564
 11
216.738172
 21
236.299257
  0
LINE
  8
5
 62
7
  6
CONTINUOUS
 10
218.453479
 20
238.985174
 11
218.194090
 21
238.834564
  0
LINE
  8
5
 62
7
  6
CONTINUOUS
 10
215.734088
 20
238.985174
 11
214.997764
 21
238.985174
  0
LINE
  8
5
 62
7
  6
CONTINUOUS
 10
216.470416
 20
238.073135
 11
215.734088
 21
238.985174
  0
LINE
  8
5
 62
7
  6
CONTINUOUS
 10
217.014294
 20
238.985174
 11
216.470416
 21
238.073135
  0
LINE
  8
5
 62
7
  6
CONTINUOUS
 10
217.692050
 20
238.985174
 11
217.014294
 21
238.985174
  0
LINE
  8
5
 62
7
  6
CONTINUOUS
 10
216.244497
 20
236.449871
 11
217.692050
 21
238.985174
  0
LINE
  8
5
 62
7
  6
CONTINUOUS
 10
215.976744
 20
236.299257
 11
216.244497
 21
236.449871
  0
LINE
  8
5
 62
7
  6
CONTINUOUS
 10
214.997764
 20
236.299257
 11
215.976744
 21
236.299257
  0
LINE
  8
5
 62
7
  6
CONTINUOUS
 10
214.997764
 20
236.784564
 11
214.997764
 21
236.299257
  0
LINE
  8
5
 62
7
  6
CONTINUOUS
 10
215.767558
 20
236.784564
 11
214.997764
 21
236.784564
  0
LINE
  8
5
 62
7
  6
CONTINUOUS
 10
216.160824
 20
237.520892
 11
215.767558
 21
236.784564
  0
LINE
  8
5
 62
7
  6
CONTINUOUS
 10
214.997764
 20
238.985174
 11
216.160824
 21
237.520892
  0
LINE
  8
5
 62
7
  6
CONTINUOUS
 10
214.755109
 20
238.985174
 11
214.269806
 21
238.985174
  0
LINE
  8
5
 62
7
  6
CONTINUOUS
 10
214.755109
 20
236.299257
 11
214.755109
 21
238.985174
  0
LINE
  8
5
 62
7
  6
CONTINUOUS
 10
214.269806
 20
236.299257
 11
214.755109
 21
236.299257
  0
LINE
  8
5
 62
7
  6
CONTINUOUS
 10
214.269806
 20
238.985174
 11
214.269806
 21
236.299257
  0
LINE
  8
5
 62
7
  6
CONTINUOUS
 10
211.926947
 20
238.985174
 11
211.157150
 21
238.985174
  0
LINE
  8
5
 62
7
  6
CONTINUOUS
 10
212.136129
 20
238.683951
 11
211.926947
 21
238.985174
  0
LINE
  8
5
 62
7
  6
CONTINUOUS
 10
212.437356
 20
237.035585
 11
212.136129
 21
238.683951
  0
LINE
  8
5
 62
7
  6
CONTINUOUS
 10
212.713478
 20
238.683951
 11
212.437356
 21
237.035585
  0
LINE
  8
5
 62
7
  6
CONTINUOUS
 10
213.031438
 20
238.985174
 11
212.713478
 21
238.683951
  0
LINE
  8
5
 62
7
  6
CONTINUOUS
 10
213.717559
 20
238.985174
 11
213.031438
 21
238.985174
  0
LINE
  8
5
 62
7
  6
CONTINUOUS
 10
214.027151
 20
238.683951
 11
213.717559
 21
238.985174
  0
LINE
  8
5
 62
7
  6
CONTINUOUS
 10
214.027151
 20
236.299257
 11
214.027151
 21
238.683951
  0
LINE
  8
5
 62
7
  6
CONTINUOUS
 10
213.533478
 20
236.299257
 11
214.027151
 21
236.299257
  0
LINE
  8
5
 62
7
  6
CONTINUOUS
 10
213.533478
 20
238.499871
 11
213.533478
 21
236.299257
  0
LINE
  8
5
 62
7
  6
CONTINUOUS
 10
213.307560
 20
238.499871
 11
213.533478
 21
238.499871
  0
LINE
  8
5
 62
7
  6
CONTINUOUS
 10
212.939396
 20
236.550278
 11
213.307560
 21
238.499871
  0
LINE
  8
5
 62
7
  6
CONTINUOUS
 10
212.638173
 20
236.299257
 11
212.939396
 21
236.550278
  0
LINE
  8
5
 62
7
  6
CONTINUOUS
 10
212.228171
 20
236.299257
 11
212.638173
 21
236.299257
  0
LINE
  8
5
 62
7
  6
CONTINUOUS
 10
211.926947
 20
236.550278
 11
212.228171
 21
236.299257
  0
LINE
  8
5
 62
7
  6
CONTINUOUS
 10
211.567152
 20
238.499871
 11
211.926947
 21
236.550278
  0
LINE
  8
5
 62
7
  6
CONTINUOUS
 10
211.332865
 20
238.499871
 11
211.567152
 21
238.499871
  0
LINE
  8
5
 62
7
  6
CONTINUOUS
 10
211.332865
 20
236.299257
 11
211.332865
 21
238.499871
  0
LINE
  8
5
 62
7
  6
CONTINUOUS
 10
210.847558
 20
236.299257
 11
211.332865
 21
236.299257
  0
LINE
  8
5
 62
7
  6
CONTINUOUS
 10
210.847558
 20
238.683951
 11
210.847558
 21
236.299257
  0
LINE
  8
5
 62
7
  6
CONTINUOUS
 10
211.157150
 20
238.985174
 11
210.847558
 21
238.683951
  0
LINE
  8
5
 62
7
  6
CONTINUOUS
 10
210.111234
 20
237.520892
 11
209.625927
 21
237.520892
  0
LINE
  8
5
 62
7
  6
CONTINUOUS
 10
210.111234
 20
236.784564
 11
210.111234
 21
237.520892
  0
LINE
  8
5
 62
7
  6
CONTINUOUS
 10
209.625927
 20
236.784564
 11
210.111234
 21
236.784564
  0
LINE
  8
5
 62
7
  6
CONTINUOUS
 10
210.295314
 20
238.006195
 11
209.441844
 21
238.006195
  0
LINE
  8
5
 62
7
  6
CONTINUOUS
 10
210.604906
 20
237.704972
 11
210.295314
 21
238.006195
  0
LINE
  8
5
 62
7
  6
CONTINUOUS
 10
210.604906
 20
236.608849
 11
210.604906
 21
237.704972
  0
LINE
  8
5
 62
7
  6
CONTINUOUS
 10
210.295314
 20
236.299257
 11
210.604906
 21
236.608849
  0
LINE
  8
5
 62
7
  6
CONTINUOUS
 10
209.441844
 20
236.299257
 11
210.295314
 21
236.299257
  0
LINE
  8
5
 62
7
  6
CONTINUOUS
 10
209.140620
 20
236.608849
 11
209.441844
 21
236.299257
  0
LINE
  8
5
 62
7
  6
CONTINUOUS
 10
209.140620
 20
237.704972
 11
209.140620
 21
236.608849
  0
LINE
  8
5
 62
7
  6
CONTINUOUS
 10
209.441844
 20
238.006195
 11
209.140620
 21
237.704972
  0
LINE
  8
5
 62
7
  6
CONTINUOUS
 10
207.918989
 20
238.006195
 11
207.425314
 21
238.006195
  0
LINE
  8
5
 62
7
  6
CONTINUOUS
 10
207.918989
 20
237.704972
 11
207.918989
 21
238.006195
  0
LINE
  8
5
 62
7
  6
CONTINUOUS
 10
208.220213
 20
238.006195
 11
207.918989
 21
237.704972
  0
LINE
  8
5
 62
7
  6
CONTINUOUS
 10
208.588376
 20
238.006195
 11
208.220213
 21
238.006195
  0
LINE
  8
5
 62
7
  6
CONTINUOUS
 10
208.889600
 20
236.299257
 11
208.889600
 21
237.704972
  0
LINE
  8
5
 62
7
  6
CONTINUOUS
 10
208.412661
 20
236.299257
 11
208.889600
 21
236.299257
  0
LINE
  8
5
 62
7
  6
CONTINUOUS
 10
208.412661
 20
237.487422
 11
208.412661
 21
236.299257
  0
LINE
  8
5
 62
7
  6
CONTINUOUS
 10
207.918989
 20
237.487422
 11
208.412661
 21
237.487422
  0
LINE
  8
5
 62
7
  6
CONTINUOUS
 10
207.918989
 20
236.299257
 11
207.918989
 21
237.487422
  0
LINE
  8
5
 62
7
  6
CONTINUOUS
 10
207.425314
 20
236.299257
 11
207.918989
 21
236.299257
  0
LINE
  8
5
 62
7
  6
CONTINUOUS
 10
207.425314
 20
238.006195
 11
207.425314
 21
236.299257
  0
LINE
  8
5
 62
7
  6
CONTINUOUS
 10
207.182662
 20
238.985174
 11
206.630418
 21
238.985174
  0
LINE
  8
5
 62
7
  6
CONTINUOUS
 10
207.182662
 20
236.299257
 11
207.182662
 21
238.985174
  0
LINE
  8
5
 62
7
  6
CONTINUOUS
 10
206.630418
 20
236.299257
 11
207.182662
 21
236.299257
  0
LINE
  8
5
 62
7
  6
CONTINUOUS
 10
206.630418
 20
238.985174
 11
206.630418
 21
236.299257
  0
LINE
  8
5
 62
7
  6
CONTINUOUS
 10
206.203683
 20
238.985174
 11
204.312662
 21
238.985174
  0
LINE
  8
5
 62
7
  6
CONTINUOUS
 10
206.203683
 20
238.441299
 11
206.203683
 21
238.985174
  0
LINE
  8
5
 62
7
  6
CONTINUOUS
 10
204.555317
 20
238.441299
 11
206.203683
 21
238.441299
  0
LINE
  8
5
 62
7
  6
CONTINUOUS
 10
204.555317
 20
236.851501
 11
204.555317
 21
238.441299
  0
LINE
  8
5
 62
7
  6
CONTINUOUS
 10
205.659807
 20
236.851501
 11
204.555317
 21
236.851501
  0
LINE
  8
5
 62
7
  6
CONTINUOUS
 10
205.517562
 20
237.219665
 11
205.659807
 21
236.851501
  0
LINE
  8
5
 62
7
  6
CONTINUOUS
 10
205.224704
 20
237.219665
 11
205.517562
 21
237.219665
  0
LINE
  8
5
 62
7
  6
CONTINUOUS
 10
205.224704
 20
237.763543
 11
205.224704
 21
237.219665
  0
LINE
  8
5
 62
7
  6
CONTINUOUS
 10
205.885723
 20
237.763543
 11
205.224704
 21
237.763543
  0
LINE
  8
5
 62
7
  6
CONTINUOUS
 10
206.304090
 20
236.717624
 11
205.885723
 21
237.763543
  0
LINE
  8
5
 62
7
  6
CONTINUOUS
 10
206.019603
 20
236.299257
 11
206.304090
 21
236.717624
  0
LINE
  8
5
 62
7
  6
CONTINUOUS
 10
204.312662
 20
236.299257
 11
206.019603
 21
236.299257
  0
LINE
  8
5
 62
7
  6
CONTINUOUS
 10
204.003070
 20
236.608849
 11
204.312662
 21
236.299257
  0
LINE
  8
5
 62
7
  6
CONTINUOUS
 10
204.003070
 20
238.683951
 11
204.003070
 21
236.608849
  0
LINE
  8
5
 62
7
  6
CONTINUOUS
 10
204.312662
 20
238.985174
 11
204.003070
 21
238.683951
  0
LINE
  8
5
 62
7
  6
CONTINUOUS
 10
203.459194
 20
238.985174
 11
203.032459
 21
238.985174
  0
LINE
  8
5
 62
7
  6
CONTINUOUS
 10
203.760418
 20
238.683951
 11
203.459194
 21
238.985174
  0
LINE
  8
5
 62
7
  6
CONTINUOUS
 10
203.760418
 20
236.608849
 11
203.760418
 21
238.683951
  0
LINE
  8
5
 62
7
  6
CONTINUOUS
 10
203.459194
 20
236.299257
 11
203.760418
 21
236.608849
  0
LINE
  8
5
 62
7
  6
CONTINUOUS
 10
202.781439
 20
236.299257
 11
203.459194
 21
236.299257
  0
LINE
  8
5
 62
7
  6
CONTINUOUS
 10
202.781439
 20
236.851501
 11
202.781439
 21
236.299257
  0
LINE
  8
5
 62
7
  6
CONTINUOUS
 10
203.216539
 20
236.851501
 11
202.781439
 21
236.851501
  0
LINE
  8
5
 62
7
  6
CONTINUOUS
 10
203.216539
 20
238.257216
 11
203.216539
 21
236.851501
  0
LINE
  8
5
 62
7
  6
CONTINUOUS
 10
203.149602
 20
238.257216
 11
203.216539
 21
238.257216
  0
LINE
  8
5
 62
7
  6
CONTINUOUS
 10
202.020010
 20
236.299257
 11
203.149602
 21
238.257216
  0
LINE
  8
5
 62
7
  6
CONTINUOUS
 10
201.342254
 20
236.299257
 11
202.020010
 21
236.299257
  0
LINE
  8
5
 62
7
  6
CONTINUOUS
 10
202.739604
 20
238.775993
 11
201.342254
 21
236.299257
  0
LINE
  8
5
 62
7
  6
CONTINUOUS
 10
203.032459
 20
238.985174
 11
202.739604
 21
238.775993
  0
LINE
  8
5
 62
7
  6
CONTINUOUS
 10
202.296132
 20
238.985174
 11
200.354910
 21
238.985174
  0
LINE
  8
5
 62
7
  6
CONTINUOUS
 10
201.994908
 20
238.441299
 11
202.296132
 21
238.985174
  0
LINE
  8
5
 62
7
  6
CONTINUOUS
 10
200.488787
 20
238.441299
 11
201.994908
 21
238.441299
  0
LINE
  8
5
 62
7
  6
CONTINUOUS
 10
200.405113
 20
238.290686
 11
200.488787
 21
238.441299
  0
LINE
  8
5
 62
7
  6
CONTINUOUS
 10
201.091234
 20
237.186195
 11
200.405113
 21
238.290686
  0
LINE
  8
5
 62
7
  6
CONTINUOUS
 10
201.074501
 20
236.918441
 11
201.091234
 21
237.186195
  0
LINE
  8
5
 62
7
  6
CONTINUOUS
 10
200.790010
 20
236.416401
 11
201.074501
 21
236.918441
  0
LINE
  8
5
 62
7
  6
CONTINUOUS
 10
200.547359
 20
236.299257
 11
200.790010
 21
236.416401
  0
LINE
  8
5
 62
7
  6
CONTINUOUS
 10
198.656337
 20
236.299257
 11
200.547359
 21
236.299257
  0
LINE
  8
5
 62
7
  6
CONTINUOUS
 10
198.999399
 20
236.851501
 11
198.656337
 21
236.299257
  0
LINE
  8
5
 62
7
  6
CONTINUOUS
 10
200.413479
 20
236.851501
 11
198.999399
 21
236.851501
  0
LINE
  8
5
 62
7
  6
CONTINUOUS
 10
200.505520
 20
237.018848
 11
200.413479
 21
236.851501
  0
LINE
  8
5
 62
7
  6
CONTINUOUS
 10
199.852866
 20
238.131707
 11
200.505520
 21
237.018848
  0
LINE
  8
5
 62
7
  6
CONTINUOUS
 10
199.852866
 20
238.441299
 11
199.852866
 21
238.131707
  0
LINE
  8
5
 62
7
  6
CONTINUOUS
 10
200.095522
 20
238.834564
 11
199.852866
 21
238.441299
  0
LINE
  8
5
 62
7
  6
CONTINUOUS
 10
200.354910
 20
238.985174
 11
200.095522
 21
238.834564
  0
LINE
  8
5
 62
7
  6
CONTINUOUS
 10
202.296132
 20
238.985174
 11
200.354910
 21
238.985174
  0
LINE
  8
5
 62
7
  6
CONTINUOUS
 10
208.889600
 20
237.709658
 11
208.578000
 21
238.004858
  0
LINE
  8
5
 62
7
  6
CONTINUOUS
 10
208.889600
 20
236.299257
 11
208.889600
 21
237.709658
  0
LINE
  8
5
 62
7
  6
CONTINUOUS
 10
207.175800
 20
238.988857
 11
206.626401
 21
238.988857
  0
LINE
  8
5
 62
7
  6
CONTINUOUS
 10
206.191801
 20
238.988857
 11
204.297601
 21
238.988857
  0
LINE
  8
5
 62
7
  6
CONTINUOUS
 10
203.453000
 20
238.988857
 11
203.026600
 21
238.988857
  0
LINE
  8
2
 62
7
  6
DASHDOT
 10
208.889600
 20
256.818589
 11
208.889600
 21
255.902327
  0
LINE
  8
2
 62
7
  6
DASHDOT
 10
208.889600
 20
307.768005
 11
208.889600
 21
273.382487
  0
LINE
  8
2
 62
7
  6
DASHDOT
 10
208.889600
 20
273.304561
 11
208.889600
 21
272.476085
  0
LINE
  8
2
 62
7
  6
DASHDOT
 10
208.889600
 20
272.271017
 11
208.889600
 21
271.364616
  0
LINE
  8
2
 62
7
  6
DASHDOT
 10
208.889600
 20
271.282588
 11
208.889600
 21
256.928982
  0
LINE
  8
2
 62
7
  6
DASHDOT
 10
208.889600
 20
255.780895
 11
208.889600
 21
251.637055
  0
LINE
  8
2
 62
7
  6
DASHDOT
 10
208.889600
 20
251.194108
 11
208.889600
 21
246.731824
  0
LINE
  8
2
 62
7
  6
DASHDOT
 10
208.889600
 20
246.616986
 11
208.889600
 21
246.264269
  0
LINE
  8
2
 62
7
  6
DASHDOT
 10
208.889600
 20
236.299257
 11
208.889600
 21
202.768005
  0
LINE
  8
2
 62
7
  6
DASHDOT
 10
208.889600
 20
246.149430
 11
208.889600
 21
245.610101
  0
LINE
  8
2
 62
7
  6
DASHDOT
 10
208.889600
 20
245.513719
 11
208.889600
 21
237.709658
  0
LINE
  8
2
 62
7
  6
DASHDOT
 10
156.389600
 20
255.268005
 11
261.389600
 21
255.268005
  0
DIMENSION
  8
3
 62
7
  6
CONTINUOUS
  2
*D1
 10
158.389600
 20
182.456105
 11
208.689600
 21
182.856105
 70
     0
  1
φ101
 13
158.389600
 23
120.556104
 14
259.389600
 24
120.556104
 50
0.000000
  0
DIMENSION
  8
3
 62
7
  6
CONTINUOUS
  2
*D2
 10
276.389601
 20
71.356106
 11
275.989601
 21
119.706105
 70
     0
  1
(97)
 13
219.389599
 23
71.356106
 14
230.389600
 24
168.456104
 50
90.000000
  0
DIMENSION
  8
3
 62
7
  6
CONTINUOUS
  2
*D3
 10
269.389600
 20
117.356104
 11
268.989600
 21
142.706103
 70
     0
  1
(51)
 13
259.889600
 23
117.356104
 14
269.389600
 24
168.456104
 50
90.000000
  0
DIMENSION
  8
3
 62
7
  6
CONTINUOUS
  2
*D4
 10
177.889600
 20
175.456104
 11
208.689599
 21
175.856104
 70
     0
  1
62
 13
177.889600
 23
158.956105
 14
239.889600
 24
158.956105
 50
0.000000
  0
DIMENSION
  8
3
 62
7
  6
CONTINUOUS
  2
*D5
 10
269.389600
 20
71.356106
 11
268.989600
 21
94.156105
 70
     0
  1
46
 13
269.389600
 23
71.356106
 14
269.389600
 24
117.356104
 50
90.000000
  0
DIMENSION
  8
3
 62
7
  6
CONTINUOUS
  2
*D6
 10
195.389599
 20
55.356105
 11
208.689599
 21
55.756105
 70
     0
  1
27
 13
195.389599
 23
84.356105
 14
222.389601
 24
84.356105
 50
0.000000
  0
LINE
  8
3
 62
7
  6
CONTINUOUS
 10
203.389600
 20
160.182382
 11
186.488409
 21
189.456104
  0
LINE
  8
3
 62
7
  6
CONTINUOUS
 10
186.488409
 20
189.456104
 11
150.484600
 21
189.456104
  0
TEXT
  8
3
 62
7
  6
CONTINUOUS
 10
150.484600
 20
189.456104
 40
4.000000
 41
1.000000
  1
コード引出口φ22
  7
KANJI
 50
0.000000
 51
0.000000
  0
LINE
  8
3
 62
7
  6
CONTINUOUS
 10
203.389600
 20
160.182382
 11
201.268280
 21
162.303702
  0
LINE
  8
3
 62
7
  6
CONTINUOUS
 10
203.389600
 20
160.182382
 11
202.613143
 21
163.080159
  0
ARC
  8
1
 62
7
  6
CONTINUOUS
 10
134.100752
 20
114.356105
 40
2.000000
 50
-90.000000
 51
0.000000
  0
LINE
  8
1
 62
7
  6
CONTINUOUS
 10
124.600751
 20
111.356105
 11
124.600751
 21
110.356105
  0
ARC
  8
1
 62
7
  6
CONTINUOUS
 10
37.100751
 20
114.356105
 40
2.000000
 50
180.000000
 51
-90.000000
  0
ARC
  8
1
 62
7
  6
CONTINUOUS
 10
47.600752
 20
110.195205
 40
1.000000
 50
180.000000
 51
-100.000001
  0
LINE
  8
1
 62
7
  6
CONTINUOUS
 10
46.600752
 20
111.356105
 11
46.600752
 21
110.195205
  0
ARC
  8
1
 62
7
  6
CONTINUOUS
 10
45.600752
 20
111.356105
 40
1.000000
 50
0.000000
 51
90.000000
  0
ARC
  8
1
 62
7
  6
CONTINUOUS
 10
73.600752
 20
77.856105
 40
2.000000
 50
0.000000
 51
90.000000
  0
LINE
  8
1
 62
7
  6
CONTINUOUS
 10
75.600752
 20
77.856105
 11
75.600752
 21
71.356106
  0
ARC
  8
1
 62
7
  6
CONTINUOUS
 10
97.600751
 20
77.856105
 40
2.000000
 50
90.000000
 51
180.000000
  0
LINE
  8
1
 62
7
  6
CONTINUOUS
 10
95.600751
 20
71.356106
 11
95.600751
 21
77.856105
  0
ARC
  8
1
 62
7
  6
CONTINUOUS
 10
52.600752
 20
106.267289
 40
2.000000
 50
0.000000
 51
80.000001
  0
LINE
  8
1
 62
7
  6
CONTINUOUS
 10
47.427104
 20
109.210396
 11
52.948048
 21
108.236906
  0
ARC
  8
1
 62
7
  6
CONTINUOUS
 10
125.600751
 20
111.356105
 40
1.000000
 50
90.000000
 51
180.000000
  0
ARC
  8
1
 62
7
  6
CONTINUOUS
 10
123.600751
 20
110.356105
 40
1.000000
 50
-90.000000
 51
0.000000
  0
LINE
  8
1
 62
7
  6
CONTINUOUS
 10
55.600264
 20
102.640369
 11
54.600752
 21
103.671603
  0
LINE
  8
1
 62
7
  6
CONTINUOUS
 10
55.600264
 20
84.071840
 11
54.600752
 21
83.040605
  0
LINE
  8
1
 62
7
  6
CONTINUOUS
 10
54.600752
 20
79.856105
 11
54.600752
 21
106.267289
  0
LINE
  8
1
 62
7
  6
CONTINUOUS
 10
122.601239
 20
102.640369
 11
123.600751
 21
103.671603
  0
LINE
  8
1
 62
7
  6
CONTINUOUS
 10
122.601239
 20
84.071840
 11
123.600751
 21
83.040605
  0
LINE
  8
1
 62
7
  6
CONTINUOUS
 10
123.600751
 20
79.856105
 11
123.600751
 21
109.356105
  0
LINE
  8
1
 62
7
  6
CONTINUOUS
 10
122.601239
 20
102.640369
 11
122.601239
 21
84.071840
  0
LINE
  8
1
 62
7
  6
CONTINUOUS
 10
55.600264
 20
84.071840
 11
55.600264
 21
102.640369
  0
LINE
  8
1
 62
7
  6
CONTINUOUS
 10
81.100752
 20
66.356104
 11
82.100752
 21
65.356104
  0
LINE
  8
1
 62
7
  6
CONTINUOUS
 10
81.100752
 20
68.856104
 11
81.100752
 21
66.356104
  0
LINE
  8
1
 62
7
  6
CONTINUOUS
 10
89.100751
 20
65.356104
 11
90.100751
 21
66.356104
  0
LINE
  8
1
 62
7
  6
CONTINUOUS
 10
90.100751
 20
68.856104
 11
90.100751
 21
66.356104
  0
LINE
  8
1
 62
7
  6
CONTINUOUS
 10
84.850752
 20
67.356104
 11
86.350752
 21
67.356104
  0
LINE
  8
1
 62
7
  6
CONTINUOUS
 10
82.100752
 20
65.356104
 11
84.850752
 21
65.356104
  0
LINE
  8
1
 62
7
  6
CONTINUOUS
 10
84.850752
 20
65.356104
 11
84.850752
 21
67.356104
  0
LINE
  8
1
 62
7
  6
CONTINUOUS
 10
86.350752
 20
67.356104
 11
86.350752
 21
65.356104
  0
LINE
  8
1
 62
7
  6
CONTINUOUS
 10
86.350752
 20
65.356104
 11
89.100751
 21
65.356104
  0
LINE
  8
1
 62
7
  6
CONTINUOUS
 10
81.100752
 20
69.856104
 11
81.100752
 21
70.856104
  0
LINE
  8
1
 62
7
  6
CONTINUOUS
 10
90.100751
 20
69.856104
 11
90.100751
 21
70.856104
  0
LINE
  8
1
 62
7
  6
CONTINUOUS
 10
78.600752
 20
69.856104
 11
92.600751
 21
69.856104
  0
LINE
  8
1
 62
7
  6
CONTINUOUS
 10
92.600751
 20
69.856104
 11
92.600751
 21
68.856104
  0
LINE
  8
1
 62
7
  6
CONTINUOUS
 10
92.600751
 20
68.856104
 11
78.600752
 21
68.856104
  0
LINE
  8
1
 62
7
  6
CONTINUOUS
 10
78.600752
 20
69.856104
 11
78.600752
 21
68.856104
  0
ARC
  8
1
 62
7
  6
CONTINUOUS
 10
50.600752
 20
124.056103
 40
2.000000
 50
90.000000
 51
180.000000
  0
ARC
  8
1
 62
7
  6
CONTINUOUS
 10
120.600751
 20
124.056103
 40
2.000000
 50
0.000000
 51
90.000000
  0
LINE
  8
1
 62
7
  6
CONTINUOUS
 10
50.600752
 20
126.056103
 11
120.600751
 21
126.056103
  0
LINE
  8
1
 62
7
  6
CONTINUOUS
 10
63.100751
 20
126.056103
 11
63.100751
 21
127.656103
  0
LINE
  8
1
 62
7
  6
CONTINUOUS
 10
47.000753
 20
125.656103
 11
47.000753
 21
121.656103
  0
LINE
  8
1
 62
7
  6
CONTINUOUS
 10
108.100752
 20
126.056103
 11
108.100752
 21
127.656103
  0
LINE
  8
1
 62
7
  6
CONTINUOUS
 10
124.200751
 20
125.656103
 11
124.200751
 21
121.656103
  0
ARC
  8
1
 62
7
  6
CONTINUOUS
 10
122.200751
 20
125.656103
 40
2.000000
 50
0.000000
 51
90.000000
  0
ARC
  8
1
 62
7
  6
CONTINUOUS
 10
49.000753
 20
125.656103
 40
2.000000
 50
90.000000
 51
180.000000
  0
LINE
  8
1
 62
7
  6
CONTINUOUS
 10
125.350752
 20
121.656103
 11
125.352146
 21
123.185252
  0
LINE
  8
1
 62
7
  6
CONTINUOUS
 10
128.435689
 20
124.306103
 11
130.600752
 21
125.556103
  0
ARC
  8
1
 62
7
  6
CONTINUOUS
 10
127.252145
 20
123.183520
 40
1.900000
 50
106.065990
 51
179.947758
  0
ARC
  8
1
 62
7
  6
CONTINUOUS
 10
133.950752
 20
123.183119
 40
1.900000
 50
0.000000
 51
73.927143
  0
LINE
  8
1
 62
7
  6
CONTINUOUS
 10
135.850752
 20
123.183119
 11
135.850752
 21
121.656103
  0
LINE
  8
1
 62
7
  6
CONTINUOUS
 10
130.600752
 20
125.556103
 11
132.765815
 21
124.306103
  0
LINE
  8
1
 62
7
  6
CONTINUOUS
 10
124.200751
 20
121.656103
 11
136.100752
 21
121.656103
  0
LINE
  8
1
 62
7
  6
CONTINUOUS
 10
136.100752
 20
121.656103
 11
136.100752
 21
114.356105
  0
LINE
  8
1
 62
7
  6
CONTINUOUS
 10
35.350752
 20
121.656103
 11
35.352146
 21
123.185252
  0
LINE
  8
1
 62
7
  6
CONTINUOUS
 10
38.435688
 20
124.306103
 11
40.600751
 21
125.556103
  0
ARC
  8
1
 62
7
  6
CONTINUOUS
 10
37.252144
 20
123.183520
 40
1.900000
 50
106.065990
 51
179.947758
  0
ARC
  8
1
 62
7
  6
CONTINUOUS
 10
43.950751
 20
123.183119
 40
1.900000
 50
0.000000
 51
73.927143
  0
LINE
  8
1
 62
7
  6
CONTINUOUS
 10
45.850751
 20
123.183119
 11
45.850751
 21
121.656103
  0
LINE
  8
1
 62
7
  6
CONTINUOUS
 10
40.600751
 20
125.556103
 11
42.765814
 21
124.306103
  0
LINE
  8
1
 62
7
  6
CONTINUOUS
 10
35.100752
 20
121.656103
 11
47.000753
 21
121.656103
  0
LINE
  8
1
 62
7
  6
CONTINUOUS
 10
35.100752
 20
121.656103
 11
35.100752
 21
114.356105
  0
ARC
  8
1
 62
7
  6
CONTINUOUS
 10
130.600752
 20
111.556103
 40
14.000001
 50
73.927144
 51
106.065994
  0
ARC
  8
1
 62
7
  6
CONTINUOUS
 10
40.600751
 20
111.556103
 40
14.000001
 50
73.927144
 51
106.065994
  0
LINE
  8
1
 62
7
  6
CONTINUOUS
 10
37.600751
 20
111.656104
 11
43.600751
 21
111.656104
  0
LINE
  8
1
 62
7
  6
CONTINUOUS
 10
127.600752
 20
111.656104
 11
133.600752
 21
111.656104
  0
LINE
  8
1
 62
7
  6
CONTINUOUS
 10
100.350752
 20
127.656103
 11
100.350752
 21
126.456102
  0
LINE
  8
1
 62
7
  6
CONTINUOUS
 10
100.350752
 20
126.456102
 11
102.850752
 21
126.456102
  0
LINE
  8
1
 62
7
  6
CONTINUOUS
 10
102.850752
 20
126.456102
 11
102.850752
 21
127.656103
  0
LINE
  8
1
 62
7
  6
CONTINUOUS
 10
37.600751
 20
111.656104
 11
37.600751
 21
112.356105
  0
LINE
  8
1
 62
7
  6
CONTINUOUS
 10
43.600751
 20
112.356105
 11
43.600751
 21
111.656104
  0
LINE
  8
1
 62
7
  6
CONTINUOUS
 10
45.600752
 20
112.356105
 11
37.100751
 21
112.356105
  0
LINE
  8
1
 62
7
  6
CONTINUOUS
 10
54.600752
 20
79.856105
 11
123.600751
 21
79.856105
  0
LINE
  8
1
 62
7
  6
CONTINUOUS
 10
75.600752
 20
71.356106
 11
95.600751
 21
71.356106
  0
LINE
  8
1
 62
7
  6
CONTINUOUS
 10
80.600752
 20
70.856104
 11
90.600751
 21
70.856104
  0
LINE
  8
1
 62
7
  6
CONTINUOUS
 10
80.100750
 20
71.356106
 11
80.600752
 21
70.856104
  0
LINE
  8
1
 62
7
  6
CONTINUOUS
 10
90.600751
 20
70.856104
 11
91.100753
 21
71.356106
  0
LINE
  8
1
 62
7
  6
CONTINUOUS
 10
64.994474
 20
102.346800
 11
55.600264
 21
102.640369
  0
LINE
  8
1
 62
7
  6
CONTINUOUS
 10
64.614595
 20
84.353537
 11
55.600264
 21
84.071840
  0
LINE
  8
1
 62
7
  6
CONTINUOUS
 10
113.408704
 20
102.353103
 11
122.601239
 21
102.640369
  0
LINE
  8
1
 62
7
  6
CONTINUOUS
 10
113.617183
 20
84.352591
 11
122.601239
 21
84.071840
  0
LINE
  8
1
 62
7
  6
CONTINUOUS
 10
75.511808
 20
100.524562
 11
75.511808
 21
93.356104
  0
LINE
  8
1
 62
7
  6
CONTINUOUS
 10
80.290780
 20
93.356104
 11
75.511808
 21
93.356104
  0
ARC
  8
1
 62
7
  6
CONTINUOUS
 10
80.290780
 20
94.418099
 40
1.061993
 50
-90.000000
 51
0.000000
  0
ARC
  8
1
 62
7
  6
CONTINUOUS
 10
80.290780
 20
99.462567
 40
1.061993
 50
0.000000
 51
90.000000
  0
LINE
  8
1
 62
7
  6
CONTINUOUS
 10
75.511808
 20
100.524562
 11
80.290780
 21
100.524562
  0
LINE
  8
1
 62
7
  6
CONTINUOUS
 10
76.839302
 20
98.931572
 11
76.839302
 21
97.869579
  0
ARC
  8
1
 62
7
  6
CONTINUOUS
 10
77.104800
 20
97.869579
 40
0.265498
 50
180.000000
 51
-90.000000
  0
LINE
  8
1
 62
7
  6
CONTINUOUS
 10
77.104800
 20
97.604081
 11
79.759785
 21
97.604081
  0
ARC
  8
1
 62
7
  6
CONTINUOUS
 10
79.759785
 20
97.869579
 40
0.265498
 50
-90.000000
 51
0.000000
  0
LINE
  8
1
 62
7
  6
CONTINUOUS
 10
80.025282
 20
97.869579
 11
80.025282
 21
98.931572
  0
ARC
  8
1
 62
7
  6
CONTINUOUS
 10
79.759785
 20
98.931572
 40
0.265498
 50
0.000000
 51
90.000000
  0
LINE
  8
1
 62
7
  6
CONTINUOUS
 10
79.759785
 20
99.197069
 11
77.104800
 21
99.197069
  0
ARC
  8
1
 62
7
  6
CONTINUOUS
 10
77.104800
 20
98.931572
 40
0.265498
 50
90.000000
 51
180.000000
  0
ARC
  8
1
 62
7
  6
CONTINUOUS
 10
77.104800
 20
96.011089
 40
0.265498
 50
90.000000
 51
180.000000
  0
ARC
  8
1
 62
7
  6
CONTINUOUS
 10
77.104800
 20
94.949093
 40
0.265498
 50
180.000000
 51
-90.000000
  0
LINE
  8
1
 62
7
  6
CONTINUOUS
 10
76.839302
 20
96.011089
 11
76.839302
 21
94.949093
  0
LINE
  8
1
 62
7
  6
CONTINUOUS
 10
77.104800
 20
94.683595
 11
79.759785
 21
94.683595
  0
ARC
  8
1
 62
7
  6
CONTINUOUS
 10
79.759785
 20
94.949093
 40
0.265498
 50
-90.000000
 51
0.000000
  0
LINE
  8
1
 62
7
  6
CONTINUOUS
 10
80.025282
 20
94.949093
 11
80.025282
 21
96.011089
  0
ARC
  8
1
 62
7
  6
CONTINUOUS
 10
79.759785
 20
96.011089
 40
0.265498
 50
0.000000
 51
90.000000
  0
LINE
  8
1
 62
7
  6
CONTINUOUS
 10
79.759785
 20
96.276590
 11
77.104800
 21
96.276590
  0
LINE
  8
1
 62
7
  6
CONTINUOUS
 10
83.742262
 20
100.524562
 11
87.459241
 21
100.524562
  0
ARC
  8
1
 62
7
  6
CONTINUOUS
 10
87.459241
 20
99.462567
 40
1.061993
 50
0.000000
 51
90.000000
  0
LINE
  8
1
 62
7
  6
CONTINUOUS
 10
88.521236
 20
99.462567
 11
88.521236
 21
98.666074
  0
ARC
  8
1
 62
7
  6
CONTINUOUS
 10
87.459241
 20
96.542086
 40
1.061993
 50
0.000000
 51
90.000000
  0
LINE
  8
1
 62
7
  6
CONTINUOUS
 10
88.521236
 20
96.542086
 11
88.521236
 21
94.418099
  0
ARC
  8
1
 62
7
  6
CONTINUOUS
 10
87.459241
 20
94.418099
 40
1.061993
 50
-90.000000
 51
0.000000
  0
LINE
  8
1
 62
7
  6
CONTINUOUS
 10
87.459241
 20
93.356104
 11
83.742262
 21
93.356104
  0
ARC
  8
1
 62
7
  6
CONTINUOUS
 10
83.742262
 20
94.418099
 40
1.061993
 50
180.000000
 51
-90.000000
  0
LINE
  8
1
 62
7
  6
CONTINUOUS
 10
82.680266
 20
94.418099
 11
82.680266
 21
95.214593
  0
ARC
  8
1
 62
7
  6
CONTINUOUS
 10
83.742262
 20
97.338579
 40
1.061993
 50
180.000000
 51
-90.000000
  0
LINE
  8
1
 62
7
  6
CONTINUOUS
 10
82.680266
 20
97.338579
 11
82.680266
 21
99.462567
  0
ARC
  8
1
 62
7
  6
CONTINUOUS
 10
83.742262
 20
99.462567
 40
1.061993
 50
90.000000
 51
180.000000
  0
ARC
  8
1
 62
7
  6
CONTINUOUS
 10
84.273259
 20
98.931572
 40
0.265498
 50
90.000000
 51
180.000000
  0
LINE
  8
1
 62
7
  6
CONTINUOUS
 10
84.273259
 20
99.197069
 11
86.928243
 21
99.197069
  0
ARC
  8
1
 62
7
  6
CONTINUOUS
 10
86.928243
 20
98.931572
 40
0.265498
 50
0.000000
 51
90.000000
  0
LINE
  8
1
 62
7
  6
CONTINUOUS
 10
87.193740
 20
98.666074
 11
88.521236
 21
98.666074
  0
LINE
  8
1
 62
7
  6
CONTINUOUS
 10
87.193740
 20
98.931572
 11
87.193740
 21
98.666074
  0
ARC
  8
1
 62
7
  6
CONTINUOUS
 10
84.273259
 20
97.869579
 40
0.265498
 50
180.000000
 51
-90.000000
  0
LINE
  8
1
 62
7
  6
CONTINUOUS
 10
84.007762
 20
98.931572
 11
84.007762
 21
97.869579
  0
LINE
  8
1
 62
7
  6
CONTINUOUS
 10
84.273259
 20
97.604081
 11
87.459241
 21
97.604081
  0
LINE
  8
1
 62
7
  6
CONTINUOUS
 10
86.928243
 20
96.276590
 11
83.742262
 21
96.276590
  0
ARC
  8
1
 62
7
  6
CONTINUOUS
 10
86.928243
 20
96.011089
 40
0.265498
 50
0.000000
 51
90.000000
  0
LINE
  8
1
 62
7
  6
CONTINUOUS
 10
87.193740
 20
96.011089
 11
87.193740
 21
94.949093
  0
ARC
  8
1
 62
7
  6
CONTINUOUS
 10
86.928243
 20
94.949093
 40
0.265498
 50
-90.000000
 51
0.000000
  0
LINE
  8
1
 62
7
  6
CONTINUOUS
 10
86.928243
 20
94.683595
 11
84.273259
 21
94.683595
  0
ARC
  8
1
 62
7
  6
CONTINUOUS
 10
84.273259
 20
94.949093
 40
0.265498
 50
180.000000
 51
-90.000000
  0
LINE
  8
1
 62
7
  6
CONTINUOUS
 10
84.007762
 20
95.214593
 11
82.680266
 21
95.214593
  0
LINE
  8
1
 62
7
  6
CONTINUOUS
 10
84.007762
 20
95.214593
 11
84.007762
 21
94.949093
  0
LINE
  8
1
 62
7
  6
CONTINUOUS
 10
89.848727
 20
93.356104
 11
89.848727
 21
100.524562
  0
LINE
  8
1
 62
7
  6
CONTINUOUS
 10
89.848727
 20
100.524562
 11
91.176219
 21
100.524562
  0
LINE
  8
1
 62
7
  6
CONTINUOUS
 10
91.176219
 20
100.524562
 11
91.176219
 21
97.955248
  0
ARC
  8
1
 62
7
  6
CONTINUOUS
 10
91.308967
 20
97.955248
 40
0.132747
 50
180.000000
 51
-48.012790
  0
LINE
  8
1
 62
7
  6
CONTINUOUS
 10
91.397773
 20
97.856578
 11
94.362199
 21
100.524562
  0
LINE
  8
1
 62
7
  6
CONTINUOUS
 10
94.362199
 20
100.524562
 11
96.220687
 21
100.524562
  0
LINE
  8
1
 62
7
  6
CONTINUOUS
 10
96.220687
 20
100.524562
 11
92.457482
 21
97.137678
  0
ARC
  8
1
 62
7
  6
CONTINUOUS
 10
92.635092
 20
96.940334
 40
0.265498
 50
131.987210
 51
-131.987213
  0
LINE
  8
1
 62
7
  6
CONTINUOUS
 10
92.457482
 20
96.742991
 11
96.220687
 21
93.356104
  0
LINE
  8
1
 62
7
  6
CONTINUOUS
 10
96.220687
 20
93.356104
 11
94.362199
 21
93.356104
  0
LINE
  8
1
 62
7
  6
CONTINUOUS
 10
94.362199
 20
93.356104
 11
91.397773
 21
96.024090
  0
ARC
  8
1
 62
7
  6
CONTINUOUS
 10
91.308967
 20
95.925417
 40
0.132747
 50
48.012790
 51
180.000000
  0
LINE
  8
1
 62
7
  6
CONTINUOUS
 10
91.176219
 20
95.925417
 11
91.176219
 21
93.356104
  0
LINE
  8
1
 62
7
  6
CONTINUOUS
 10
91.176219
 20
93.356104
 11
89.848727
 21
93.356104
  0
LINE
  8
1
 62
7
  6
CONTINUOUS
 10
74.582562
 20
91.763114
 11
100.601414
 21
91.763114
  0
LINE
  8
1
 62
7
  6
CONTINUOUS
 10
100.601414
 20
91.763114
 11
92.901958
 21
86.453144
  0
LINE
  8
1
 62
7
  6
CONTINUOUS
 10
92.901958
 20
86.453144
 11
94.362199
 21
90.435619
  0
LINE
  8
1
 62
7
  6
CONTINUOUS
 10
81.618274
 20
90.435619
 11
94.362199
 21
90.435619
  0
LINE
  8
1
 62
7
  6
CONTINUOUS
 10
81.618274
 20
90.435619
 11
79.295161
 21
88.577132
  0
LINE
  8
1
 62
7
  6
CONTINUOUS
 10
70.600086
 20
88.577132
 11
79.295161
 21
88.577132
  0
LINE
  8
1
 62
7
  6
CONTINUOUS
 10
74.582562
 20
91.763114
 11
70.600086
 21
88.577132
  0
LINE
  8
1
 62
7
  6
CONTINUOUS
 10
81.352777
 20
99.462567
 11
81.352777
 21
97.788229
  0
ARC
  8
1
 62
7
  6
CONTINUOUS
 10
80.556279
 20
97.788229
 40
0.796496
 50
-67.771246
 51
0.000000
  0
ARC
  8
1
 62
7
  6
CONTINUOUS
 10
80.902796
 20
96.940334
 40
0.119475
 50
112.228754
 51
-112.228754
  0
ARC
  8
1
 62
7
  6
CONTINUOUS
 10
80.556279
 20
96.092437
 40
0.796496
 50
0.000000
 51
67.771246
  0
LINE
  8
1
 62
7
  6
CONTINUOUS
 10
81.352777
 20
94.418099
 11
81.352777
 21
96.092437
  0
LINE
  8
1
 62
7
  6
CONTINUOUS
 10
127.600752
 20
111.656104
 11
127.600752
 21
112.356105
  0
LINE
  8
1
 62
7
  6
CONTINUOUS
 10
133.600752
 20
112.356105
 11
133.600752
 21
111.656104
  0
LINE
  8
1
 62
7
  6
CONTINUOUS
 10
125.600751
 20
112.356105
 11
134.100752
 21
112.356105
  0
LINE
  8
1
 62
7
  6
CONTINUOUS
 10
136.100752
 20
117.356104
 11
35.100752
 21
117.356104
  0
LINE
  8
1
 62
7
  6
CONTINUOUS
 10
35.100752
 20
118.056104
 11
136.100752
 21
118.056104
  0
LINE
  8
1
 62
7
  6
CONTINUOUS
 10
136.100752
 20
120.056104
 11
35.100752
 21
120.056104
  0
LINE
  8
1
 62
7
  6
CONTINUOUS
 10
49.000753
 20
127.656103
 11
122.200751
 21
127.656103
  0
LINE
  8
1
 62
7
  6
CONTINUOUS
 10
47.600752
 20
110.195205
 11
123.600751
 21
110.195205
  0
LINE
  8
1
 62
7
  6
CONTINUOUS
 10
47.100752
 20
127.956103
 11
124.100751
 21
127.956103
  0
ARC
  8
1
 62
7
  6
CONTINUOUS
 10
121.100751
 20
129.656103
 40
2.000000
 50
-90.000000
 51
-58.211635
  0
ARC
  8
1
 62
7
  6
CONTINUOUS
 10
50.100752
 20
129.656103
 40
2.000000
 50
-121.788365
 51
-90.000000
  0
ARC
  8
1
 62
7
  6
CONTINUOUS
 10
82.252145
 20
121.583520
 40
1.900000
 50
106.065990
 51
179.947758
  0
LINE
  8
1
 62
7
  6
CONTINUOUS
 10
80.350752
 20
120.056104
 11
80.352146
 21
121.585252
  0
LINE
  8
1
 62
7
  6
CONTINUOUS
 10
83.435689
 20
122.706104
 11
85.600752
 21
123.956104
  0
ARC
  8
1
 62
7
  6
CONTINUOUS
 10
85.600752
 20
109.956103
 40
14.000001
 50
73.927144
 51
106.065994
  0
ARC
  8
1
 62
7
  6
CONTINUOUS
 10
88.950751
 20
121.583120
 40
1.900000
 50
0.000000
 51
73.927143
  0
LINE
  8
1
 62
7
  6
CONTINUOUS
 10
90.850751
 20
121.583120
 11
90.850751
 21
120.056104
  0
LINE
  8
1
 62
7
  6
CONTINUOUS
 10
85.600752
 20
123.956104
 11
87.765814
 21
122.706104
  0
ARC
  8
1
 62
7
  6
CONTINUOUS
 10
50.432339
 20
121.583520
 40
1.900000
 50
106.065990
 51
179.947758
  0
LINE
  8
1
 62
7
  6
CONTINUOUS
 10
51.615884
 20
122.706104
 11
53.780946
 21
123.956104
  0
ARC
  8
1
 62
7
  6
CONTINUOUS
 10
57.130946
 20
121.583120
 40
1.900000
 50
0.000000
 51
73.927143
  0
LINE
  8
1
 62
7
  6
CONTINUOUS
 10
53.780946
 20
123.956104
 11
55.946009
 21
122.706104
  0
ARC
  8
1
 62
7
  6
CONTINUOUS
 10
53.780946
 20
109.956103
 40
14.000001
 50
73.927144
 51
106.065994
  0
LINE
  8
1
 62
7
  6
CONTINUOUS
 10
48.530947
 20
120.056104
 11
48.532341
 21
121.585252
  0
LINE
  8
1
 62
7
  6
CONTINUOUS
 10
59.030946
 20
121.583120
 11
59.030946
 21
120.056104
  0
ARC
  8
1
 62
7
  6
CONTINUOUS
 10
114.071950
 20
121.583520
 40
1.900000
 50
106.065990
 51
179.947758
  0
LINE
  8
1
 62
7
  6
CONTINUOUS
 10
112.170557
 20
120.056104
 11
112.171951
 21
121.585252
  0
LINE
  8
1
 62
7
  6
CONTINUOUS
 10
115.255494
 20
122.706104
 11
117.420557
 21
123.956104
  0
LINE
  8
1
 62
7
  6
CONTINUOUS
 10
117.420557
 20
123.956104
 11
119.585620
 21
122.706104
  0
ARC
  8
1
 62
7
  6
CONTINUOUS
 10
117.420557
 20
109.956103
 40
14.000001
 50
73.927144
 51
106.065994
  0
ARC
  8
1
 62
7
  6
CONTINUOUS
 10
120.770556
 20
121.583120
 40
1.900000
 50
0.000000
 51
73.927143
  0
LINE
  8
1
 62
7
  6
CONTINUOUS
 10
122.670557
 20
121.583120
 11
122.670557
 21
120.056104
  0
LINE
  8
1
 62
7
  6
CONTINUOUS
 10
48.600752
 20
122.088782
 11
48.600752
 21
124.056103
  0
LINE
  8
1
 62
7
  6
CONTINUOUS
 10
122.600751
 20
124.056103
 11
122.600751
 21
122.093403
  0
LINE
  8
1
 62
7
  6
CONTINUOUS
 10
58.350752
 20
127.656103
 11
58.350752
 21
126.456102
  0
LINE
  8
1
 62
7
  6
CONTINUOUS
 10
58.350752
 20
126.456102
 11
60.850752
 21
126.456102
  0
LINE
  8
1
 62
7
  6
CONTINUOUS
 10
60.850752
 20
126.456102
 11
60.850752
 21
127.656103
  0
LINE
  8
1
 62
7
  6
CONTINUOUS
 10
82.368646
 20
126.756101
 11
91.368646
 21
126.756101
  0
LINE
  8
1
 62
7
  6
CONTINUOUS
 10
82.368646
 20
127.656103
 11
82.368646
 21
126.756101
  0
LINE
  8
1
 62
7
  6
CONTINUOUS
 10
91.368646
 20
127.656103
 11
91.368646
 21
126.756101
  0
ARC
  8
1
 62
7
  6
CONTINUOUS
 10
57.780946
 20
113.356105
 40
1.000000
 50
-90.000000
 51
0.000000
  0
ARC
  8
1
 62
7
  6
CONTINUOUS
 10
49.780947
 20
113.356105
 40
1.000000
 50
180.000000
 51
-90.000000
  0
LINE
  8
1
 62
7
  6
CONTINUOUS
 10
49.780947
 20
112.356105
 11
57.780946
 21
112.356105
  0
ARC
  8
1
 62
7
  6
CONTINUOUS
 10
89.600751
 20
113.356105
 40
1.000000
 50
-90.000000
 51
0.000000
  0
ARC
  8
1
 62
7
  6
CONTINUOUS
 10
81.600752
 20
113.356105
 40
1.000000
 50
180.000000
 51
-90.000000
  0
LINE
  8
1
 62
7
  6
CONTINUOUS
 10
81.600752
 20
112.356105
 11
89.600751
 21
112.356105
  0
ARC
  8
1
 62
7
  6
CONTINUOUS
 10
121.420557
 20
113.356105
 40
1.000000
 50
-90.000000
 51
0.000000
  0
ARC
  8
1
 62
7
  6
CONTINUOUS
 10
113.420557
 20
113.356105
 40
1.000000
 50
180.000000
 51
-90.000000
  0
LINE
  8
1
 62
7
  6
CONTINUOUS
 10
113.420557
 20
112.356105
 11
121.420557
 21
112.356105
  0
ARC
  8
1
 62
7
  6
CONTINUOUS
 10
47.780947
 20
113.856105
 40
1.000000
 50
0.000000
 51
90.000000
  0
LINE
  8
1
 62
7
  6
CONTINUOUS
 10
48.780947
 20
113.856105
 11
48.780947
 21
113.356105
  0
LINE
  8
1
 62
7
  6
CONTINUOUS
 10
35.100752
 20
114.856105
 11
47.780947
 21
114.856105
  0
ARC
  8
1
 62
7
  6
CONTINUOUS
 10
59.780946
 20
113.856105
 40
1.000000
 50
90.000000
 51
180.000000
  0
LINE
  8
1
 62
7
  6
CONTINUOUS
 10
58.780946
 20
113.356105
 11
58.780946
 21
113.856105
  0
ARC
  8
1
 62
7
  6
CONTINUOUS
 10
79.600752
 20
113.856105
 40
1.000000
 50
0.000000
 51
90.000000
  0
LINE
  8
1
 62
7
  6
CONTINUOUS
 10
59.780946
 20
114.856105
 11
79.600752
 21
114.856105
  0
LINE
  8
1
 62
7
  6
CONTINUOUS
 10
80.600752
 20
113.856105
 11
80.600752
 21
113.356105
  0
ARC
  8
1
 62
7
  6
CONTINUOUS
 10
91.600751
 20
113.856105
 40
1.000000
 50
90.000000
 51
180.000000
  0
LINE
  8
1
 62
7
  6
CONTINUOUS
 10
90.600751
 20
113.356105
 11
90.600751
 21
113.856105
  0
ARC
  8
1
 62
7
  6
CONTINUOUS
 10
111.420557
 20
113.856105
 40
1.000000
 50
0.000000
 51
90.000000
  0
LINE
  8
1
 62
7
  6
CONTINUOUS
 10
91.600751
 20
114.856105
 11
111.420557
 21
114.856105
  0
LINE
  8
1
 62
7
  6
CONTINUOUS
 10
112.420557
 20
113.856105
 11
112.420557
 21
113.356105
  0
ARC
  8
1
 62
7
  6
CONTINUOUS
 10
123.420557
 20
113.856105
 40
1.000000
 50
90.000000
 51
180.000000
  0
LINE
  8
1
 62
7
  6
CONTINUOUS
 10
122.420557
 20
113.356105
 11
122.420557
 21
113.856105
  0
LINE
  8
1
 62
7
  6
CONTINUOUS
 10
123.420557
 20
114.856105
 11
136.100752
 21
114.856105
  0
ARC
  8
1
 62
7
  6
CONTINUOUS
 10
49.100752
 20
166.456104
 40
2.000000
 50
90.000000
 51
180.000000
  0
LINE
  8
1
 62
7
  6
CONTINUOUS
 10
47.100752
 20
127.956103
 11
47.100752
 21
166.456104
  0
ARC
  8
1
 62
7
  6
CONTINUOUS
 10
122.100751
 20
166.456104
 40
2.000000
 50
0.000000
 51
90.000000
  0
LINE
  8
1
 62
7
  6
CONTINUOUS
 10
49.100752
 20
168.456104
 11
122.100751
 21
168.456104
  0
LINE
  8
1
 62
7
  6
CONTINUOUS
 10
124.100751
 20
166.456104
 11
124.100751
 21
127.956103
  0
LINE
  8
2
 62
7
  6
DASHDOT
 10
40.600751
 20
127.151004
 11
40.600751
 21
110.352203
  0
LINE
  8
2
 62
7
  6
DASHDOT
 10
130.600752
 20
127.036004
 11
130.600752
 21
109.977502
  0
LINE
  8
2
 62
7
  6
CONTINUOUS
 10
100.540252
 20
126.456102
 11
100.540252
 21
127.656103
  0
LINE
  8
2
 62
7
  6
CONTINUOUS
 10
102.661253
 20
127.656103
 11
102.661253
 21
126.456102
  0
LINE
  8
2
 62
7
  6
DASHDOT
 10
101.600752
 20
128.126004
 11
101.600752
 21
126.056103
  0
LINE
  8
2
 62
7
  6
CONTINUOUS
 10
38.142251
 20
111.656104
 11
38.142251
 21
112.356105
  0
LINE
  8
2
 62
7
  6
CONTINUOUS
 10
43.059251
 20
112.356105
 11
43.059251
 21
111.656104
  0
LINE
  8
2
 62
7
  6
DASHDOT
 10
51.015552
 20
93.356104
 11
126.030951
 21
93.356104
  0
LINE
  8
2
 62
7
  6
CONTINUOUS
 10
54.261448
 20
107.381777
 11
54.880272
 21
107.558129
  0
LINE
  8
2
 62
7
  6
CONTINUOUS
 10
54.880272
 20
107.558129
 11
55.478912
 21
107.679963
  0
LINE
  8
2
 62
7
  6
CONTINUOUS
 10
55.478912
 20
107.679963
 11
56.058150
 21
107.750394
  0
LINE
  8
2
 62
7
  6
CONTINUOUS
 10
56.058150
 20
107.750394
 11
56.618770
 21
107.772545
  0
LINE
  8
2
 62
7
  6
CONTINUOUS
 10
56.618770
 20
107.772545
 11
57.161558
 21
107.749532
  0
LINE
  8
2
 62
7
  6
CONTINUOUS
 10
57.161558
 20
107.749532
 11
57.687294
 21
107.684475
  0
LINE
  8
2
 62
7
  6
CONTINUOUS
 10
57.687294
 20
107.684475
 11
58.196765
 21
107.580492
  0
LINE
  8
2
 62
7
  6
CONTINUOUS
 10
58.196765
 20
107.580492
 11
58.690752
 21
107.440701
  0
LINE
  8
2
 62
7
  6
CONTINUOUS
 10
58.690752
 20
107.440701
 11
59.164293
 21
107.245353
  0
LINE
  8
2
 62
7
  6
CONTINUOUS
 10
59.164293
 20
107.245353
 11
59.614516
 21
106.983010
  0
LINE
  8
2
 62
7
  6
CONTINUOUS
 10
59.614516
 20
106.983010
 11
60.045337
 21
106.669267
  0
LINE
  8
2
 62
7
  6
CONTINUOUS
 10
60.045337
 20
106.669267
 11
60.460676
 21
106.319717
  0
LINE
  8
2
 62
7
  6
CONTINUOUS
 10
60.460676
 20
106.319717
 11
60.864448
 21
105.949951
  0
LINE
  8
2
 62
7
  6
CONTINUOUS
 10
60.864448
 20
105.949951
 11
61.260575
 21
105.575565
  0
LINE
  8
2
 62
7
  6
CONTINUOUS
 10
61.260575
 20
105.575565
 11
61.652969
 21
105.212151
  0
LINE
  8
2
 62
7
  6
CONTINUOUS
 10
61.652969
 20
105.212151
 11
62.045552
 21
104.875301
  0
LINE
  8
2
 62
7
  6
CONTINUOUS
 10
62.045552
 20
104.875301
 11
62.455019
 21
104.583609
  0
LINE
  8
2
 62
7
  6
CONTINUOUS
 10
62.455019
 20
104.583609
 11
62.884798
 21
104.330192
  0
LINE
  8
2
 62
7
  6
CONTINUOUS
 10
62.884798
 20
104.330192
 11
63.318896
 21
104.092430
  0
LINE
  8
2
 62
7
  6
CONTINUOUS
 10
63.318896
 20
104.092430
 11
63.741320
 21
103.847706
  0
LINE
  8
2
 62
7
  6
CONTINUOUS
 10
63.741320
 20
103.847706
 11
64.136082
 21
103.573400
  0
LINE
  8
2
 62
7
  6
CONTINUOUS
 10
64.136082
 20
103.573400
 11
64.487190
 21
103.246891
  0
LINE
  8
2
 62
7
  6
CONTINUOUS
 10
64.487190
 20
103.246891
 11
64.778650
 21
102.845564
  0
LINE
  8
2
 62
7
  6
CONTINUOUS
 10
64.778650
 20
102.845564
 11
64.994474
 21
102.346799
  0
LINE
  8
2
 62
7
  6
CONTINUOUS
 10
64.994474
 20
102.346799
 11
65.125350
 21
101.744958
  0
LINE
  8
2
 62
7
  6
CONTINUOUS
 10
65.125350
 20
101.744958
 11
65.182515
 21
101.059167
  0
LINE
  8
2
 62
7
  6
CONTINUOUS
 10
65.182515
 20
101.059167
 11
65.180807
 21
100.303952
  0
LINE
  8
2
 62
7
  6
CONTINUOUS
 10
65.180807
 20
100.303952
 11
65.135059
 21
99.493838
  0
LINE
  8
2
 62
7
  6
CONTINUOUS
 10
65.135059
 20
99.493838
 11
65.060104
 21
98.643350
  0
LINE
  8
2
 62
7
  6
CONTINUOUS
 10
65.060104
 20
98.643350
 11
64.970778
 21
97.767014
  0
LINE
  8
2
 62
7
  6
CONTINUOUS
 10
64.970778
 20
97.767014
 11
64.881915
 21
96.879357
  0
LINE
  8
2
 62
7
  6
CONTINUOUS
 10
64.881915
 20
96.879357
 11
64.808352
 21
95.994902
  0
LINE
  8
2
 62
7
  6
CONTINUOUS
 10
64.808352
 20
95.994902
 11
64.729149
 21
95.079498
  0
LINE
  8
2
 62
7
  6
CONTINUOUS
 10
64.729149
 20
95.079498
 11
64.621206
 21
94.104677
  0
LINE
  8
2
 62
7
  6
CONTINUOUS
 10
64.621206
 20
94.104677
 11
64.496109
 21
93.093486
  0
LINE
  8
2
 62
7
  6
CONTINUOUS
 10
64.496109
 20
93.093486
 11
64.365451
 21
92.068970
  0
LINE
  8
2
 62
7
  6
CONTINUOUS
 10
64.365451
 20
92.068970
 11
64.240816
 21
91.054178
  0
LINE
  8
2
 62
7
  6
CONTINUOUS
 10
64.240816
 20
91.054178
 11
64.133796
 21
90.072154
  0
LINE
  8
2
 62
7
  6
CONTINUOUS
 10
64.133796
 20
90.072154
 11
64.055978
 21
89.145946
  0
LINE
  8
2
 62
7
  6
CONTINUOUS
 10
64.055978
 20
89.145946
 11
64.018951
 21
88.298602
  0
LINE
  8
2
 62
7
  6
CONTINUOUS
 10
64.018951
 20
88.298602
 11
64.042410
 21
87.524179
  0
LINE
  8
2
 62
7
  6
CONTINUOUS
 10
64.042410
 20
87.524179
 11
64.123759
 21
86.798182
  0
LINE
  8
2
 62
7
  6
CONTINUOUS
 10
64.123759
 20
86.798182
 11
64.241148
 21
86.115827
  0
LINE
  8
2
 62
7
  6
CONTINUOUS
 10
64.241148
 20
86.115827
 11
64.372733
 21
85.472330
  0
LINE
  8
2
 62
7
  6
CONTINUOUS
 10
64.372733
 20
85.472330
 11
64.496663
 21
84.862903
  0
LINE
  8
2
 62
7
  6
CONTINUOUS
 10
64.496663
 20
84.862903
 11
64.591091
 21
84.282765
  0
LINE
  8
2
 62
7
  6
CONTINUOUS
 10
64.591091
 20
84.282765
 11
64.634170
 21
83.727127
  0
LINE
  8
2
 62
7
  6
CONTINUOUS
 10
64.634170
 20
83.727127
 11
64.604051
 21
83.191208
  0
LINE
  8
2
 62
7
  6
CONTINUOUS
 10
64.604051
 20
83.191208
 11
64.516756
 21
82.678514
  0
LINE
  8
2
 62
7
  6
CONTINUOUS
 10
64.516756
 20
82.678514
 11
64.399960
 21
82.195108
  0
LINE
  8
2
 62
7
  6
CONTINUOUS
 10
64.399960
 20
82.195108
 11
64.249293
 21
81.740032
  0
LINE
  8
2
 62
7
  6
CONTINUOUS
 10
64.249293
 20
81.740032
 11
64.060386
 21
81.312328
  0
LINE
  8
2
 62
7
  6
CONTINUOUS
 10
64.060386
 20
81.312328
 11
63.828867
 21
80.911040
  0
LINE
  8
2
 62
7
  6
CONTINUOUS
 10
63.828867
 20
80.911040
 11
63.550367
 21
80.535212
  0
LINE
  8
2
 62
7
  6
CONTINUOUS
 10
63.550367
 20
80.535212
 11
63.220520
 21
80.183886
  0
LINE
  8
2
 62
7
  6
CONTINUOUS
 10
63.220520
 20
80.183886
 11
62.834952
 21
79.856105
  0
LINE
  8
2
 62
7
  6
CONTINUOUS
 10
64.134902
 20
103.535663
 11
54.600752
 21
103.833604
  0
LINE
  8
2
 62
7
  6
CONTINUOUS
 10
64.604051
 20
83.191208
 11
54.600752
 21
82.878604
  0
LINE
  8
2
 62
7
  6
CONTINUOUS
 10
116.709051
 20
110.356105
 11
116.231222
 21
110.058731
  0
LINE
  8
2
 62
7
  6
CONTINUOUS
 10
116.231222
 20
110.058731
 11
115.797257
 21
109.695293
  0
LINE
  8
2
 62
7
  6
CONTINUOUS
 10
115.797257
 20
109.695293
 11
115.404150
 21
109.271625
  0
LINE
  8
2
 62
7
  6
CONTINUOUS
 10
115.404150
 20
109.271625
 11
115.048894
 21
108.793558
  0
LINE
  8
2
 62
7
  6
CONTINUOUS
 10
115.048894
 20
108.793558
 11
114.728483
 21
108.266928
  0
LINE
  8
2
 62
7
  6
CONTINUOUS
 10
114.728483
 20
108.266928
 11
114.439910
 21
107.697570
  0
LINE
  8
2
 62
7
  6
CONTINUOUS
 10
114.439910
 20
107.697570
 11
114.180169
 21
107.091316
  0
LINE
  8
2
 62
7
  6
CONTINUOUS
 10
114.180169
 20
107.091316
 11
113.946251
 21
106.454002
  0
LINE
  8
2
 62
7
  6
CONTINUOUS
 10
113.946251
 20
106.454002
 11
113.757201
 21
105.748678
  0
LINE
  8
2
 62
7
  6
CONTINUOUS
 10
113.757201
 20
105.748678
 11
113.624042
 21
104.953952
  0
LINE
  8
2
 62
7
  6
CONTINUOUS
 10
113.624042
 20
104.953952
 11
113.531741
 21
104.098994
  0
LINE
  8
2
 62
7
  6
CONTINUOUS
 10
113.531741
 20
104.098994
 11
113.465265
 21
103.212977
  0
LINE
  8
2
 62
7
  6
CONTINUOUS
 10
113.465265
 20
103.212977
 11
113.409580
 21
102.325068
  0
LINE
  8
2
 62
7
  6
CONTINUOUS
 10
113.409580
 20
102.325068
 11
113.349655
 21
101.464440
  0
LINE
  8
2
 62
7
  6
CONTINUOUS
 10
113.349655
 20
101.464440
 11
113.270457
 21
100.660260
  0
LINE
  8
2
 62
7
  6
CONTINUOUS
 10
113.270457
 20
100.660260
 11
113.156951
 21
99.941701
  0
LINE
  8
2
 62
7
  6
CONTINUOUS
 10
113.156951
 20
99.941701
 11
112.997770
 21
99.338697
  0
LINE
  8
2
 62
7
  6
CONTINUOUS
 10
112.997770
 20
99.338697
 11
112.802356
 21
98.836294
  0
LINE
  8
2
 62
7
  6
CONTINUOUS
 10
112.802356
 20
98.836294
 11
112.586897
 21
98.396335
  0
LINE
  8
2
 62
7
  6
CONTINUOUS
 10
112.586897
 20
98.396335
 11
112.367584
 21
97.980657
  0
LINE
  8
2
 62
7
  6
CONTINUOUS
 10
112.367584
 20
97.980657
 11
112.160603
 21
97.551106
  0
LINE
  8
2
 62
7
  6
CONTINUOUS
 10
112.160603
 20
97.551106
 11
111.982145
 21
97.069518
  0
LINE
  8
2
 62
7
  6
CONTINUOUS
 10
111.982145
 20
97.069518
 11
111.848398
 21
96.497737
  0
LINE
  8
2
 62
7
  6
CONTINUOUS
 10
111.848398
 20
96.497737
 11
111.775551
 21
95.797601
  0
LINE
  8
2
 62
7
  6
CONTINUOUS
 10
111.775551
 20
95.797601
 11
111.766386
 21
94.932794
  0
LINE
  8
2
 62
7
  6
CONTINUOUS
 10
111.766386
 20
94.932794
 11
111.806675
 21
93.924089
  0
LINE
  8
2
 62
7
  6
CONTINUOUS
 10
111.806675
 20
93.924089
 11
111.887096
 21
92.818971
  0
LINE
  8
2
 62
7
  6
CONTINUOUS
 10
111.887096
 20
92.818971
 11
111.998328
 21
91.664928
  0
LINE
  8
2
 62
7
  6
CONTINUOUS
 10
111.998328
 20
91.664928
 11
112.131052
 21
90.509444
  0
LINE
  8
2
 62
7
  6
CONTINUOUS
 10
112.131052
 20
90.509444
 11
112.275944
 21
89.400005
  0
LINE
  8
2
 62
7
  6
CONTINUOUS
 10
112.275944
 20
89.400005
 11
112.423685
 21
88.384096
  0
LINE
  8
2
 62
7
  6
CONTINUOUS
 10
112.423685
 20
88.384096
 11
112.564951
 21
87.509201
  0
LINE
  8
2
 62
7
  6
CONTINUOUS
 10
112.564951
 20
87.509201
 11
112.721697
 21
86.771787
  0
LINE
  8
2
 62
7
  6
CONTINUOUS
 10
112.721697
 20
86.771787
 11
112.912205
 21
86.125113
  0
LINE
  8
2
 62
7
  6
CONTINUOUS
 10
112.912205
 20
86.125113
 11
113.121656
 21
85.551858
  0
LINE
  8
2
 62
7
  6
CONTINUOUS
 10
113.121656
 20
85.551858
 11
113.335229
 21
85.034702
  0
LINE
  8
2
 62
7
  6
CONTINUOUS
 10
113.335229
 20
85.034702
 11
113.538103
 21
84.556326
  0
LINE
  8
2
 62
7
  6
CONTINUOUS
 10
113.538103
 20
84.556326
 11
113.715456
 21
84.099411
  0
LINE
  8
2
 62
7
  6
CONTINUOUS
 10
113.715456
 20
84.099411
 11
113.852469
 21
83.646636
  0
LINE
  8
2
 62
7
  6
CONTINUOUS
 10
113.852469
 20
83.646636
 11
113.934321
 21
83.180681
  0
LINE
  8
2
 62
7
  6
CONTINUOUS
 10
113.934321
 20
83.180681
 11
113.971880
 21
82.714247
  0
LINE
  8
2
 62
7
  6
CONTINUOUS
 10
113.971880
 20
82.714247
 11
113.983920
 21
82.269273
  0
LINE
  8
2
 62
7
  6
CONTINUOUS
 10
113.983920
 20
82.269273
 11
113.967475
 21
81.842296
  0
LINE
  8
2
 62
7
  6
CONTINUOUS
 10
113.967475
 20
81.842296
 11
113.919584
 21
81.429849
  0
LINE
  8
2
 62
7
  6
CONTINUOUS
 10
113.919584
 20
81.429849
 11
113.837279
 21
81.028472
  0
LINE
  8
2
 62
7
  6
CONTINUOUS
 10
113.837279
 20
81.028472
 11
113.717598
 21
80.634697
  0
LINE
  8
2
 62
7
  6
CONTINUOUS
 10
113.717598
 20
80.634697
 11
113.557576
 21
80.245064
  0
LINE
  8
2
 62
7
  6
CONTINUOUS
 10
113.557576
 20
80.245064
 11
113.354250
 21
79.856105
  0
LINE
  8
2
 62
7
  6
CONTINUOUS
 10
113.488119
 20
103.517585
 11
123.600751
 21
103.833604
  0
LINE
  8
2
 62
7
  6
CONTINUOUS
 10
113.986406
 20
83.179054
 11
123.600751
 21
82.878604
  0
LINE
  8
2
 62
7
  6
CONTINUOUS
 10
128.142252
 20
111.656104
 11
128.142252
 21
112.356105
  0
LINE
  8
2
 62
7
  6
CONTINUOUS
 10
133.059252
 20
112.356105
 11
133.059252
 21
111.656104
  0
LINE
  8
2
 62
7
  6
CONTINUOUS
 10
58.540251
 20
126.456102
 11
58.540251
 21
127.656103
  0
LINE
  8
2
 62
7
  6
CONTINUOUS
 10
60.661252
 20
127.656103
 11
60.661252
 21
126.456102
  0
LINE
  8
2
 62
7
  6
DASHDOT
 10
59.600752
 20
128.126004
 11
59.600752
 21
126.056103
  0
LINE
  8
2
 62
7
  6
DASHDOT
 10
53.780946
 20
125.386004
 11
53.780946
 21
111.360802
  0
LINE
  8
2
 62
7
  6
DASHDOT
 10
117.420557
 20
125.507004
 11
117.420557
 21
111.360802
  0
LINE
  8
2
 62
7
  6
DASHDOT
 10
85.600752
 20
170.840001
 11
85.600752
 21
64.219105
  0
DIMENSION
  8
3
 62
7
  6
CONTINUOUS
  2
*D7
 10
47.100752
 20
175.456104
 11
85.400750
 21
175.856104
 70
     0
  1
77
 13
47.100752
 23
166.956104
 14
124.100751
 24
166.956104
 50
0.000000
  0
DIMENSION
  8
3
 62
7
  6
CONTINUOUS
  2
*D8
 10
54.600752
 20
55.356105
 11
88.900750
 21
55.756105
 70
     0
  1
69
 13
54.600752
 23
79.356105
 14
123.600751
 24
79.356105
 50
0.000000
  0
LINE
  8
3
 62
7
  6
CONTINUOUS
 10
61.042360
 20
83.079904
 11
49.076630
 21
62.354653
  0
LINE
  8
3
 62
7
  6
CONTINUOUS
 10
49.076630
 20
62.354653
 11
28.358669
 21
62.354653
  0
TEXT
  8
3
 62
7
  6
CONTINUOUS
 10
28.358669
 20
62.354653
 40
4.000000
 41
0.500000
  1
RC1/2
  7
KANJI
 50
0.000000
 51
0.000000
  0
LINE
  8
3
 62
7
  6
CONTINUOUS
 10
61.042360
 20
83.079904
 11
60.265903
 21
80.182126
  0
LINE
  8
3
 62
7
  6
CONTINUOUS
 10
61.042360
 20
83.079904
 11
58.921039
 21
80.958583
  0
TEXT
  8
5
 62
7
  6
CONTINUOUS
 10
190.952099
 20
270.829139
 40
4.000000
 41
0.551250
  1
FLOW SWITCH
  7
KANJI
 50
0.000000
 51
0.000000
  0
TEXT
  8
5
 62
7
  6
CONTINUOUS
 10
190.952099
 20
265.805439
 40
4.000000
 41
0.500000
  1
TYPE
  7
KANJI
 50
0.000000
 51
0.000000
  0
TEXT
  8
5
 62
7
  6
CONTINUOUS
 10
200.883938
 20
265.717054
 40
4.000000
 41
0.448750
  1
AQS-C110-
  7
KANJI
 50
0.000000
 51
0.000000
  0
TEXT
  8
2
 62
7
  6
CONTINUOUS
 10
163.254453
 20
14.385732
 40
12.000000
 41
0.500000
  1
AQS-C110
  7
KANJI
 50
0.000000
 51
0.000000
  0
TEXT
  8
2
 62
7
  6
CONTINUOUS
 10
129.483092
 20
14.385732
 40
12.000000
 41
0.500000
  1
1:2
  7
KANJI
 50
0.000000
 51
0.000000
  0
ENDSEC
  0
EOF
